WWE Table For 3 S04E03 TLC Icons WEB HEEL /720p Watch / Download

WWE Table For 3 S04E03 TLC Icons WEB HEEL /720p Watch / Download

 

 

 

 


 

 

dx-tv.com

 

 

 

 

 

 

Complete name : WWE.Table.For.3.S04E03.TLC.Icons.WEB.h264-HEEL.mp4
Format : MPEG-4
Format profile : Base Media
Codec ID : isom
File size : 309 MiB
Duration : 24mn 0s
Overall bit rate : 1 801 Kbps
Writing application : Lavf58.2.103

Video
ID : 1
Format : AVC
Format/Info : Advanced Video Codec
Codec ID : avc1
Codec ID/Info : Advanced Video Coding
Duration : 24mn 0s
Bit rate mode : Variable
Bit rate : 1 701 Kbps
Maximum bit rate : 2 125 Kbps
Width : 960 pixels
Height : 540 pixels
Display aspect ratio : 16:9
Frame rate mode : Constant
Frame rate : 29.970 fps
Color space : YUV
Chroma subsampling : 4:2:0
Bit depth : 8 bits
Scan type : Progressive
Bits/(Pixel*Frame) : 0.109
Stream size : 292 MiB (94%)

Audio
ID : 2
Format : AAC
Format/Info : Advanced Audio Codec
Format profile : LC
Codec ID : 40
Duration : 24mn 0s
Bit rate mode : Constant
Bit rate : 93.5 Kbps
Channel(s) : 2 channels
Channel positions : Front: L R
Sampling rate : 48.0 KHz
Compression mode : Lossy
Stream size : 16.0 MiB (5%)
 

 

 

 

 

 
Title: WWE.Table.For.3.S04E03.TLC.Icons.720p.WEB.h264-HEEL
Released: 2018.05.21
Source: WWE Network
Resolution: 1280 x 720 @ 29.970 FPS
Video: H.264 @ 4500 kbps
Audio: AAC @ 96 kbps
Size: 765 MB
Runtime: 24mn 00sec
 

WWE Table For 3 S04E03 TLC Icons WEB HEEL /720p Watch / Download

 

 

 

 

Watch online

 

 

Waiting finish converting video

 

 

Server 1

 

 

 

 

 

 

 

 

 

 

 

 

 

 

Server 2

 

 

 

 

 

 


 

 

 

 

Uploaded By Site DX-TV.com

 

 

 

open rar file to see this password

 

 

 

 

The password is : DX-TV.com

 

 

 

 

400p+720p

 

 

 

 

 

Uploaded.net + rapidgator.net

 

 

 

 

 

http://shrt10.com/RUhyaH
 

http://shrt10.com/utWX
 

http://shrt10.com/4GvB
 

http://shrt10.com/QeTY
 

 

 

 

 

 

 

WWE Table For 3 S04E03 TLC Icons WEB HEEL /720p Watch / Download

Author: snaw90

Leave a Reply

Your email address will not be published. Required fields are marked *