WWE Survivor Series 2020 Kickoff 720p Free Online DX-TV

WWE Survivor Series 2020 Kickoff 720p Free Online DX-TV

WWE Survivor Series 2020

 

 WWE Survivor Series 2020

 

[su_expand more_text=”Show More Info” less_text=”Close all Info” height=”30″ text_color=”#000000″ link_color=”#e25f8b” link_style=”button” more_icon=”icon: arrow-down” less_icon=”icon: arrow-up”]

 

Complete name : WWE Survivor Series 2020 Kickoff 720p WEB DX-TV.mp4
Format : MPEG-4
Format profile : Base Media
Codec ID : isom )
File size : 1.36 GiB
Duration : 59 min 3 s
Overall bit rate mode : Variable
Overall bit rate : 3 297 kb/s
Writing application : Lavf58

WWE Survivor Series 2020

Video
ID : 1
Format : AVC
Duration : 59 min 3 s
Bit rate mode : Variable
Bit rate : 3 159 kb/s
Width : 1 280 pixels
Height : 720 pixels
Display aspect ratio : 16:9
rate mode : Variable
Frame rate : 30.000 FPS
Standard : NTSC
Color space : YUV
Chroma sampling : 4:2:0
Bit depth : 8 bits
Scan type : Progressive
Bits/(Pixel*Frame) : 0.114
Stream size : 1.30 GiB
Color range : Limited
Color primaries : BT.709
Transfer characteristics : BT.709
Matrix coefficients : BT.709
Codec configuration box : avc

WWE Survivor Series 2020

Audio
ID : 2
Format : AAC LC
Format/Info : Advanced Audio
Codec ID : mp4a-40-2
Duration : 59 min 3 s
Bit rate mode : Constant
Bit rate : 125 kb/s
Channel(s) : 2 channels
Channel layout : L R
Sampling rate : 48.0 kHz
Frame rate : 46.875 FPS
Compression mode : Lossy
Stream size : 53.0 MiB
Default : Yes
Alternate group : 1

 Survivor Series 2020

Text #1
ID : 1-CC1
Format : EIA-608
Muxing mode : SCTE 128 / DTVCC Transport
Muxing mode, more info : Muxed in Video #1
Duration : 59 min 3 s
Bit rate mode : Constant
Stream size : 0.00 Byte (0%)
Caption Service Name : CC1

 Survivor Series 2020

Text #2
ID : 1-1
Format : EIA-708
Muxing mode : SCTE 128 / DTVCC Transport
Muxing mode, more info : Muxed in Video #1
Duration : 59 min 3 s
Bit rate mode : Constant
Stream size : 0.00 Byte (0%)

 

 

[/su_expand]

 

 

Watch online

 

 

Server 1

 

 

 

 

 

 

 

 

Server-2

 

 

 

 

 

 

 

 

Uploaded By Site DX-TV.com

 

 

 

 

Download Free Links with normal and high Speed [ more 14 hosts ]  

 

[su_expand more_text=”Show Hosts Info” less_text=”Close all Info” height=”30″ text_color=”#000000″ link_color=”#e25f8b” link_style=”button” more_icon=”icon: arrow-down” less_icon=”icon: arrow-up”]

 

 Survivor Series 2020

hexupload.net – clicknupload.co – www.multiup.org

– uptobox.com – anonfiles.com – userscloud.com –

dropapk.to alfafile.net – ddownload.com – rockfile.co

– 1fichier.com – filedown.org – katfile.com – filerio.in

 

 

[/su_expand]

 

 

http://shrt10.com/XFPpl
http://shrt10.com/LIUInWZ
http://shrt10.com/6c5HajlV
http://shrt10.com/Epn5hLQfz
http://shrt10.com/zyTSpJpr
http://shrt10.com/TpBEqpGrM
http://shrt10.com/Y0xDvz

 

 

 

 

Download Links with premium High Speed   

WWE Survivor Series  

 

 

 

dropapk.to

 

 

 

nitroflare.com

 

 

 

rapidgator.net

 

 

 

uploaded.net

 

 

 

uploadgig.com

 

 

 

WWE Survivor Series  

 

dx-tv.com

 

urlfree.net

You May Also Like

Leave a Reply

Your email address will not be published. Required fields are marked *

This site uses Akismet to reduce spam. Learn how your comment data is processed.