WWE Superstar Spectacle Online 2021 01 26 720p DX-TV

WWE Superstar Spectacle Online 2021 01 26 720p DX-TV

WWE Superstar Spectacle Online

 WWE Superstar Spectacle Online 2021 01 26 720p DX-TV

 

Download Links with premium High Speed   

 

 

dropapk.to

http://shrt10.com/sNlPf5

 

 

nitroflare.com

http://shrt10.com/jy38RJ1u

 

 

rapidgator.net

http://shrt10.com/T3QVoqu0

 

 

uploaded.net

http://shrt10.com/7lyMHOV

 

 

 

WWE Superstar Spectacle Online

 

Server 1

 

 

 

 

WWE Superstar Spectacle Online

 

 

 

 

 

Server-2

 

 

 

 

watch now

 

 

Uploaded By Site DX-TV.com

 

 

Complete name : WWE.Superstar.Spectacle.2021.01.26.720p.Hi.WEB.h264-HEEL.mp4
Format : MPEG-4
Format profile : Base Media
Codec ID : isom
File size : 2.33 GiB
Duration : 1 h 33 min
Overall bit rate mode : Variable
Overall bit rate : 3 554 kb/s
Writing application : Lavf58.32.104

WWE Superstar Spectacle Online

Video
ID : 1
Format : AVC
Format/Info : Advanced Video
Bit rate : 3 372 kb/s
Width : 1 280 pixels
Height : 720 pixels
Display aspect ratio : 16:9
Frame rate mode : Constant
Frame rate : 30.000 FPS
Color space : YUV
Chroma subsampling : 4:2:0
Bit depth : 8 bits
Scan type : Progressive
Bits/(Pixel*Frame) : 0.122
Stream size : 2.20 GiB (94%)

WWE Superstar Spectacle  

Audio
ID : 2
Format : AAC LC
Format/Info : Advanced Audio Codec Low Complexity
Codec ID : mp4a-40-2
Duration : 1 h 33 min
Bit rate mode : Constant
Bit rate : 192 kb/s
Channel(s) : 2 channels
Channel layout : L R
Sampling rate : 48.0 kHz
Frame rate : 46.875 FPS (1024 SPF)
Compression mode : Lossy
Stream size : 129 MiB (5%)
Default : Yes
Alternate group : 1

WWE Superstar Spectacle  

Text
ID : 3
Format : Timed Text
Muxing mode : sbtl
Codec ID : tx3g
Duration : 1 h 33 min
Bit rate mode : Variable
Bit rate : 95 b/s
Stream size : 65.0 KiB (0%)
Language : English
Default : Yes
Forced : No
Alternate group : 3

Audio
ID : 2
Format : AAC LC
Format/Info : Advanced Audio Codec Low Complexity
Codec ID : mp4a-40-2
Duration : 1 h 33 min
Bit rate mode : Constant
Bit rate : 192 kb/s
Channel(s) : 2 channels
Channel layout : L R
Sampling rate : 48.0 kHz
Frame rate : 46.875 FPS (1024 SPF)
Compression mode : Lossy
Stream size : 129 MiB (5%)
Default : Yes
Alternate group : 1

Text
ID : 3
Format : Timed Text
Muxing mode : sbtl
Codec ID : tx3g
Duration : 1 h 33 min
Bit rate mode : Variable
Bit rate : 95 b/s
Stream size : 65.0 KiB (0%)
Language : English
Default : Yes
Forced : No
Alternate group : 3

 

 

https://dx-tv.com/

You May Also Like

Leave a Reply

Your email address will not be published. Required fields are marked *

This site uses Akismet to reduce spam. Learn how your comment data is processed.