WWE SummerSlam 2021 720p Online Free Replay

WWE SummerSlam 2021 720p Online Free Replay DX-TV

Contents show

WWE SummerSlam 2021

 WWE SummerSlam 2021

 

 

 

Download Links with premium High Speed
 

 


 

Dopapk

 

 

Show Links

 

 

http://shrt10.com/DbtNEtL
http://shrt10.com/Wn82ocIee

 

[collapse]

 

 

 

 

Nitroflare

 

 

Show Links

 

 

http://shrt10.com/iIxlro
http://shrt10.com/TtGzIt

 

 

[collapse]

 

 

Rapidgator

 

 

Show Links

 

 

http://shrt10.com/51llI
http://shrt10.com/BWn8ak

 

 

[collapse]

 

 

 

Uploaded
 

 

Show Links

 

 

http://shrt10.com/4rmaaC

 

 

[collapse]

 

 

 

 

 

Watch online

 

Server 1

 

 

 

 

WWE SummerSlam 2021

 

 

 

 

Server-2

 

 

 

 

watch now

 

 

 

|Server-3

 

 

 

 

watch now

 

 

Uploaded By Site DX-TV.com

 

 

Show Info This Show

 

WWE SummerSlam 2021

Complete name : WWE.SummerSlam.2021.PPV.WEB.h264-HEEL.mp4
Format : MPEG-4
Format profile : Base Media
Codec ID : isom
File size : 3.09 GiB
Duration : 4 h 7 min
Overall bit rate mode : Variable
Overall bit rate : 1 784 kb/s
Law rating : N/A

Video
ID : 1
Format : AVC
Format/Info : Advanced Video
Duration : 4 h 7 min
Bit rate mode : Variable
Bit rate : 1 663 kb/s
Width : 896 pixels
Height : 504 pixels
Display aspect ratio : 16:9
Frame rate mode : Variable
Frame rate : 30.000 FPS
Minimum frame rate : 29.412 FPS
Maximum frame rate : 90 000.000 FPS
Standard : NTSC
Color space : YUV
Chroma subsampling : 4:2:0
Bit depth : 8 bits
Scan type : Progressive
Bits/(Pixel*Frame) : 0.123
Stream size : 2.86 GiB (93%)
Color primaries : BT.709
Transfer characteristics : BT.709
Matrix coefficients : BT.709
Codec configuration box : avc

WWE SummerSlam 2021

Audio
ID : 2
Format : AAC LC
Codec ID : mp4a-40-2
Duration : 4 h 7 min
Bit rate mode : Variable
Bit rate : 125 kb/s
Maximum bit rate : 128 kb/s
Channel(s) : 2 channels
Channel layout : L R
Sampling rate : 48.0 kHz
Frame rate : 46.875 FPS (1024 SPF)
Compression mode : Lossy
Stream size : 222 MiB (7%)
Default : Yes
Alternate group : 1

Text #1
ID : 1-CC1
Format : EIA-608
Muxing mode : SCTE 128 / DTVCC Transport
Muxing mode, more info : Muxed in Video #1
Duration : 4 h 7 min
Bit rate mode : Constant
Stream size : 0.00 Byte (0%)
CaptionServiceName : CC1

WWE SummerSlam 2021

Text #2
ID : 1-CC3
Format : EIA-608
Muxing mode : SCTE 128 / DTVCC Transport
Muxing mode, more info : Muxed in Video #1
Duration : 4 h 7 min
Bit rate mode : Constant
Stream size : 0.00 Byte (0%)
CaptionServiceName : CC3

Text #3
ID : 1-1
Format : EIA-708
Muxing mode : SCTE 128 / DTVCC Transport
Muxing mode, more info : Muxed in Video #1
Duration : 4 h 7 min
Bit rate mode : Constant
Stream size : 0.00 Byte (0%)

WWE SummerSlam 2021

Text #4
ID : 1-2
Format : EIA-708
Muxing mode : SCTE 128 / DTVCC Transport
Muxing mode, more info : Muxed in Video #1
Duration : 4 h 7 min
Bit rate mode : Constant
Stream size : 0.00 Byte (0%)

Complete name : WWE.SummerSlam.2021.PPV.720p.WEB.h264-HEEL.mp4
Format : MPEG-4
Format profile : Base Media
File size : 7.33 GiB
Duration : 4 h 7 min
Overall bit rate mode : Variable
Overall bit rate : 4 235 kb/s
Law rating : N/A

WWE SummerSlam 2021

Video
ID : 1
Format : AVC
Duration : 4 h 7 min
Bit rate : 4 097 kb/s
Width : 1 280 pixels
Height : 720 pixels
Display aspect ratio : 16:9
Frame rate mode : Variable
Frame rate : 30.000 FPS
Minimum frame rate : 29.412 FPS
Maximum frame rate : 1 500.000 FPS
Color space : YUV
Chroma subsampling : 4:2:0
Bit depth : 8 bits
Scan type : Progressive
Bits/(Pixel*Frame) : 0.148
Stream size : 7.09 GiB (97%)

WWE SummerSlam 2021

Audio
ID : 2
Format : AAC LC
Codec ID : mp4a-40-2
Duration : 4 h 7 min
Bit rate mode : Variable
Bit rate : 125 kb/s
Maximum bit rate : 132 kb/s
Channel(s) : 2 channels
Channel layout : L R
Sampling rate : 48.0 kHz
Frame rate : 46.875 FPS (1024 SPF)
Compression mode : Lossy
Stream size : 222 MiB (3%)
Default : Yes
Alternate group : 1

Text #1
ID : 1-CC1
Format : EIA-608
Muxing mode : SCTE 128 / DTVCC Transport
Muxing mode, more info : Muxed in Video #1
Duration : 4 h 7 min
Bit rate mode : Constant
Stream size : 0.00 Byte (0%)
CaptionServiceName : CC1

WWE SummerSlam 2021

Text #2
ID : 1-CC3
Format : EIA-608
Muxing mode : SCTE 128 / DTVCC Transport
Muxing mode, more info : Muxed in Video #1
Duration : 4 h 7 min
Bit rate mode : Constant
Stream size : 0.00 Byte (0%)
CaptionServiceName : CC3

Text #3
ID : 1-1
Format : EIA-708
Muxing mode : SCTE 128 / DTVCC Transport
Muxing mode, more info : Muxed in Video #1
Duration : 4 h 7 min
Bit rate mode : Constant
Stream size : 0.00 Byte (0%)

WWE SummerSlam 2021

Text #4
ID : 1-2
Format : EIA-708
Muxing mode : SCTE 128 / DTVCC Transport
Muxing mode, more info : Muxed in Video #1
Duration : 4 h 7 min
Bit rate mode : Constant
Stream size : 0.00 Byte (0%)

WWE SummerSlam 2021

Complete name : WWE.SummerSlam.2021.PPV.WEB.h264-HEEL.mp4
Format : MPEG-4
Format profile : Base Media
Codec ID : isom
File size : 3.09 GiB
Duration : 4 h 7 min
Overall bit rate mode : Variable
Overall bit rate : 1 784 kb/s
Law rating : N/A

Video
ID : 1
Format : AVC
Format/Info : Advanced Video
Duration : 4 h 7 min
Bit rate mode : Variable
Bit rate : 1 663 kb/s
Width : 896 pixels
Height : 504 pixels
Display aspect ratio : 16:9
Frame rate mode : Variable
Frame rate : 30.000 FPS
Minimum frame rate : 29.412 FPS
Maximum frame rate : 90 000.000 FPS
Standard : NTSC
Color space : YUV
Chroma subsampling : 4:2:0
Bit depth : 8 bits
Scan type : Progressive
Bits/(Pixel*Frame) : 0.123
Stream size : 2.86 GiB (93%)
Color primaries : BT.709
Transfer characteristics : BT.709
Matrix coefficients : BT.709
Codec configuration box : avc

WWE SummerSlam 2021

Audio
ID : 2
Format : AAC LC
Codec ID : mp4a-40-2
Duration : 4 h 7 min
Bit rate mode : Variable
Bit rate : 125 kb/s
Maximum bit rate : 128 kb/s
Channel(s) : 2 channels
Channel layout : L R
Sampling rate : 48.0 kHz
Frame rate : 46.875 FPS (1024 SPF)
Compression mode : Lossy
Stream size : 222 MiB (7%)
Default : Yes
Alternate group : 1

Text #1
ID : 1-CC1
Format : EIA-608
Muxing mode : SCTE 128 / DTVCC Transport
Muxing mode, more info : Muxed in Video #1
Duration : 4 h 7 min
Bit rate mode : Constant
Stream size : 0.00 Byte (0%)
CaptionServiceName : CC1

WWE SummerSlam 2021

Text #2
ID : 1-CC3
Format : EIA-608
Muxing mode : SCTE 128 / DTVCC Transport
Muxing mode, more info : Muxed in Video #1
Duration : 4 h 7 min
Bit rate mode : Constant
Stream size : 0.00 Byte (0%)
CaptionServiceName : CC3

Text #3
ID : 1-1
Format : EIA-708
Muxing mode : SCTE 128 / DTVCC Transport
Muxing mode, more info : Muxed in Video #1
Duration : 4 h 7 min
Bit rate mode : Constant
Stream size : 0.00 Byte (0%)

WWE SummerSlam 2021

Text #4
ID : 1-2
Format : EIA-708
Muxing mode : SCTE 128 / DTVCC Transport
Muxing mode, more info : Muxed in Video #1
Duration : 4 h 7 min
Bit rate mode : Constant
Stream size : 0.00 Byte (0%)

Complete name : WWE.SummerSlam.2021.PPV.720p.WEB.h264-HEEL.mp4
Format : MPEG-4
Format profile : Base Media
File size : 7.33 GiB
Duration : 4 h 7 min
Overall bit rate mode : Variable
Overall bit rate : 4 235 kb/s
Law rating : N/A

WWE SummerSlam 2021

Video
ID : 1
Format : AVC
Duration : 4 h 7 min
Bit rate : 4 097 kb/s
Width : 1 280 pixels
Height : 720 pixels
Display aspect ratio : 16:9
Frame rate mode : Variable
Frame rate : 30.000 FPS
Minimum frame rate : 29.412 FPS
Maximum frame rate : 1 500.000 FPS
Color space : YUV
Chroma subsampling : 4:2:0
Bit depth : 8 bits
Scan type : Progressive
Bits/(Pixel*Frame) : 0.148
Stream size : 7.09 GiB (97%)

WWE SummerSlam 2021

Audio
ID : 2
Format : AAC LC
Codec ID : mp4a-40-2
Duration : 4 h 7 min
Bit rate mode : Variable
Bit rate : 125 kb/s
Maximum bit rate : 132 kb/s
Channel(s) : 2 channels
Channel layout : L R
Sampling rate : 48.0 kHz
Frame rate : 46.875 FPS (1024 SPF)
Compression mode : Lossy
Stream size : 222 MiB (3%)
Default : Yes
Alternate group : 1

Text #1
ID : 1-CC1
Format : EIA-608
Muxing mode : SCTE 128 / DTVCC Transport
Muxing mode, more info : Muxed in Video #1
Duration : 4 h 7 min
Bit rate mode : Constant
Stream size : 0.00 Byte (0%)
CaptionServiceName : CC1

WWE SummerSlam 2021

Text #2
ID : 1-CC3
Format : EIA-608
Muxing mode : SCTE 128 / DTVCC Transport
Muxing mode, more info : Muxed in Video #1
Duration : 4 h 7 min
Bit rate mode : Constant
Stream size : 0.00 Byte (0%)
CaptionServiceName : CC3

Text #3
ID : 1-1
Format : EIA-708
Muxing mode : SCTE 128 / DTVCC Transport
Muxing mode, more info : Muxed in Video #1
Duration : 4 h 7 min
Bit rate mode : Constant
Stream size : 0.00 Byte (0%)

WWE SummerSlam 2021

Text #4
ID : 1-2
Format : EIA-708
Muxing mode : SCTE 128 / DTVCC Transport
Muxing mode, more info : Muxed in Video #1
Duration : 4 h 7 min
Bit rate mode : Constant
Stream size : 0.00 Byte (0%)

WWE SummerSlam 2021

Complete name : WWE.SummerSlam.2021.PPV.WEB.h264-HEEL.mp4
Format : MPEG-4
Format profile : Base Media
Codec ID : isom
File size : 3.09 GiB
Duration : 4 h 7 min
Overall bit rate mode : Variable
Overall bit rate : 1 784 kb/s
Law rating : N/A

Video
ID : 1
Format : AVC
Format/Info : Advanced Video
Duration : 4 h 7 min
Bit rate mode : Variable
Bit rate : 1 663 kb/s
Width : 896 pixels
Height : 504 pixels
Display aspect ratio : 16:9
Frame rate mode : Variable
Frame rate : 30.000 FPS
Minimum frame rate : 29.412 FPS
Maximum frame rate : 90 000.000 FPS
Standard : NTSC
Color space : YUV
Chroma subsampling : 4:2:0
Bit depth : 8 bits
Scan type : Progressive
Bits/(Pixel*Frame) : 0.123
Stream size : 2.86 GiB (93%)
Color primaries : BT.709
Transfer characteristics : BT.709
Matrix coefficients : BT.709
Codec configuration box : avc

WWE SummerSlam 2021

Audio
ID : 2
Format : AAC LC
Codec ID : mp4a-40-2
Duration : 4 h 7 min
Bit rate mode : Variable
Bit rate : 125 kb/s
Maximum bit rate : 128 kb/s
Channel(s) : 2 channels
Channel layout : L R
Sampling rate : 48.0 kHz
Frame rate : 46.875 FPS (1024 SPF)
Compression mode : Lossy
Stream size : 222 MiB (7%)
Default : Yes
Alternate group : 1

Text #1
ID : 1-CC1
Format : EIA-608
Muxing mode : SCTE 128 / DTVCC Transport
Muxing mode, more info : Muxed in Video #1
Duration : 4 h 7 min
Bit rate mode : Constant
Stream size : 0.00 Byte (0%)
CaptionServiceName : CC1

WWE SummerSlam 2021

Text #2
ID : 1-CC3
Format : EIA-608
Muxing mode : SCTE 128 / DTVCC Transport
Muxing mode, more info : Muxed in Video #1
Duration : 4 h 7 min
Bit rate mode : Constant
Stream size : 0.00 Byte (0%)
CaptionServiceName : CC3

Text #3
ID : 1-1
Format : EIA-708
Muxing mode : SCTE 128 / DTVCC Transport
Muxing mode, more info : Muxed in Video #1
Duration : 4 h 7 min
Bit rate mode : Constant
Stream size : 0.00 Byte (0%)

WWE SummerSlam 2021

Text #4
ID : 1-2
Format : EIA-708
Muxing mode : SCTE 128 / DTVCC Transport
Muxing mode, more info : Muxed in Video #1
Duration : 4 h 7 min
Bit rate mode : Constant
Stream size : 0.00 Byte (0%)

Complete name : WWE.SummerSlam.2021.PPV.720p.WEB.h264-HEEL.mp4
Format : MPEG-4
Format profile : Base Media
File size : 7.33 GiB
Duration : 4 h 7 min
Overall bit rate mode : Variable
Overall bit rate : 4 235 kb/s
Law rating : N/A

WWE SummerSlam 2021

Video
ID : 1
Format : AVC
Duration : 4 h 7 min
Bit rate : 4 097 kb/s
Width : 1 280 pixels
Height : 720 pixels
Display aspect ratio : 16:9
Frame rate mode : Variable
Frame rate : 30.000 FPS
Minimum frame rate : 29.412 FPS
Maximum frame rate : 1 500.000 FPS
Color space : YUV
Chroma subsampling : 4:2:0
Bit depth : 8 bits
Scan type : Progressive
Bits/(Pixel*Frame) : 0.148
Stream size : 7.09 GiB (97%)

WWE SummerSlam 2021

Audio
ID : 2
Format : AAC LC
Codec ID : mp4a-40-2
Duration : 4 h 7 min
Bit rate mode : Variable
Bit rate : 125 kb/s
Maximum bit rate : 132 kb/s
Channel(s) : 2 channels
Channel layout : L R
Sampling rate : 48.0 kHz
Frame rate : 46.875 FPS (1024 SPF)
Compression mode : Lossy
Stream size : 222 MiB (3%)
Default : Yes
Alternate group : 1

Text #1
ID : 1-CC1
Format : EIA-608
Muxing mode : SCTE 128 / DTVCC Transport
Muxing mode, more info : Muxed in Video #1
Duration : 4 h 7 min
Bit rate mode : Constant
Stream size : 0.00 Byte (0%)
CaptionServiceName : CC1

WWE SummerSlam 2021

Text #2
ID : 1-CC3
Format : EIA-608
Muxing mode : SCTE 128 / DTVCC Transport
Muxing mode, more info : Muxed in Video #1
Duration : 4 h 7 min
Bit rate mode : Constant
Stream size : 0.00 Byte (0%)
CaptionServiceName : CC3

Text #3
ID : 1-1
Format : EIA-708
Muxing mode : SCTE 128 / DTVCC Transport
Muxing mode, more info : Muxed in Video #1
Duration : 4 h 7 min
Bit rate mode : Constant
Stream size : 0.00 Byte (0%)

WWE SummerSlam 2021

Text #4
ID : 1-2
Format : EIA-708
Muxing mode : SCTE 128 / DTVCC Transport
Muxing mode, more info : Muxed in Video #1
Duration : 4 h 7 min
Bit rate mode : Constant
Stream size : 0.00 Byte (0%)

WWE SummerSlam 2021

Complete name : WWE.SummerSlam.2021.PPV.WEB.h264-HEEL.mp4
Format : MPEG-4
Format profile : Base Media
Codec ID : isom
File size : 3.09 GiB
Duration : 4 h 7 min
Overall bit rate mode : Variable
Overall bit rate : 1 784 kb/s
Law rating : N/A

Video
ID : 1
Format : AVC
Format/Info : Advanced Video
Duration : 4 h 7 min
Bit rate mode : Variable
Bit rate : 1 663 kb/s
Width : 896 pixels
Height : 504 pixels
Display aspect ratio : 16:9
Frame rate mode : Variable
Frame rate : 30.000 FPS
Minimum frame rate : 29.412 FPS
Maximum frame rate : 90 000.000 FPS
Standard : NTSC
Color space : YUV
Chroma subsampling : 4:2:0
Bit depth : 8 bits
Scan type : Progressive
Bits/(Pixel*Frame) : 0.123
Stream size : 2.86 GiB (93%)
Color primaries : BT.709
Transfer characteristics : BT.709
Matrix coefficients : BT.709
Codec configuration box : avc

WWE SummerSlam 2021

Audio
ID : 2
Format : AAC LC
Codec ID : mp4a-40-2
Duration : 4 h 7 min
Bit rate mode : Variable
Bit rate : 125 kb/s
Maximum bit rate : 128 kb/s
Channel(s) : 2 channels
Channel layout : L R
Sampling rate : 48.0 kHz
Frame rate : 46.875 FPS (1024 SPF)
Compression mode : Lossy
Stream size : 222 MiB (7%)
Default : Yes
Alternate group : 1

Text #1
ID : 1-CC1
Format : EIA-608
Muxing mode : SCTE 128 / DTVCC Transport
Muxing mode, more info : Muxed in Video #1
Duration : 4 h 7 min
Bit rate mode : Constant
Stream size : 0.00 Byte (0%)
CaptionServiceName : CC1

WWE SummerSlam 2021

Text #2
ID : 1-CC3
Format : EIA-608
Muxing mode : SCTE 128 / DTVCC Transport
Muxing mode, more info : Muxed in Video #1
Duration : 4 h 7 min
Bit rate mode : Constant
Stream size : 0.00 Byte (0%)
CaptionServiceName : CC3

Text #3
ID : 1-1
Format : EIA-708
Muxing mode : SCTE 128 / DTVCC Transport
Muxing mode, more info : Muxed in Video #1
Duration : 4 h 7 min
Bit rate mode : Constant
Stream size : 0.00 Byte (0%)

WWE SummerSlam 2021

Text #4
ID : 1-2
Format : EIA-708
Muxing mode : SCTE 128 / DTVCC Transport
Muxing mode, more info : Muxed in Video #1
Duration : 4 h 7 min
Bit rate mode : Constant
Stream size : 0.00 Byte (0%)

Complete name : WWE.SummerSlam.2021.PPV.720p.WEB.h264-HEEL.mp4
Format : MPEG-4
Format profile : Base Media
File size : 7.33 GiB
Duration : 4 h 7 min
Overall bit rate mode : Variable
Overall bit rate : 4 235 kb/s
Law rating : N/A

WWE SummerSlam 2021

Video
ID : 1
Format : AVC
Duration : 4 h 7 min
Bit rate : 4 097 kb/s
Width : 1 280 pixels
Height : 720 pixels
Display aspect ratio : 16:9
Frame rate mode : Variable
Frame rate : 30.000 FPS
Minimum frame rate : 29.412 FPS
Maximum frame rate : 1 500.000 FPS
Color space : YUV
Chroma subsampling : 4:2:0
Bit depth : 8 bits
Scan type : Progressive
Bits/(Pixel*Frame) : 0.148
Stream size : 7.09 GiB (97%)

WWE SummerSlam 2021

Audio
ID : 2
Format : AAC LC
Codec ID : mp4a-40-2
Duration : 4 h 7 min
Bit rate mode : Variable
Bit rate : 125 kb/s
Maximum bit rate : 132 kb/s
Channel(s) : 2 channels
Channel layout : L R
Sampling rate : 48.0 kHz
Frame rate : 46.875 FPS (1024 SPF)
Compression mode : Lossy
Stream size : 222 MiB (3%)
Default : Yes
Alternate group : 1

Text #1
ID : 1-CC1
Format : EIA-608
Muxing mode : SCTE 128 / DTVCC Transport
Muxing mode, more info : Muxed in Video #1
Duration : 4 h 7 min
Bit rate mode : Constant
Stream size : 0.00 Byte (0%)
CaptionServiceName : CC1

WWE SummerSlam 2021

Text #2
ID : 1-CC3
Format : EIA-608
Muxing mode : SCTE 128 / DTVCC Transport
Muxing mode, more info : Muxed in Video #1
Duration : 4 h 7 min
Bit rate mode : Constant
Stream size : 0.00 Byte (0%)
CaptionServiceName : CC3

Text #3
ID : 1-1
Format : EIA-708
Muxing mode : SCTE 128 / DTVCC Transport
Muxing mode, more info : Muxed in Video #1
Duration : 4 h 7 min
Bit rate mode : Constant
Stream size : 0.00 Byte (0%)

WWE SummerSlam 2021

Text #4
ID : 1-2
Format : EIA-708
Muxing mode : SCTE 128 / DTVCC Transport
Muxing mode, more info : Muxed in Video #1
Duration : 4 h 7 min
Bit rate mode : Constant
Stream size : 0.00 Byte (0%)

WWE SummerSlam 2021

Complete name : WWE.SummerSlam.2021.PPV.WEB.h264-HEEL.mp4
Format : MPEG-4
Format profile : Base Media
Codec ID : isom
File size : 3.09 GiB
Duration : 4 h 7 min
Overall bit rate mode : Variable
Overall bit rate : 1 784 kb/s
Law rating : N/A

Video
ID : 1
Format : AVC
Format/Info : Advanced Video
Duration : 4 h 7 min
Bit rate mode : Variable
Bit rate : 1 663 kb/s
Width : 896 pixels
Height : 504 pixels
Display aspect ratio : 16:9
Frame rate mode : Variable
Frame rate : 30.000 FPS
Minimum frame rate : 29.412 FPS
Maximum frame rate : 90 000.000 FPS
Standard : NTSC
Color space : YUV
Chroma subsampling : 4:2:0
Bit depth : 8 bits
Scan type : Progressive
Bits/(Pixel*Frame) : 0.123
Stream size : 2.86 GiB (93%)
Color primaries : BT.709
Transfer characteristics : BT.709
Matrix coefficients : BT.709
Codec configuration box : avc

WWE SummerSlam 2021

Audio
ID : 2
Format : AAC LC
Codec ID : mp4a-40-2
Duration : 4 h 7 min
Bit rate mode : Variable
Bit rate : 125 kb/s
Maximum bit rate : 128 kb/s
Channel(s) : 2 channels
Channel layout : L R
Sampling rate : 48.0 kHz
Frame rate : 46.875 FPS (1024 SPF)
Compression mode : Lossy
Stream size : 222 MiB (7%)
Default : Yes
Alternate group : 1

Text #1
ID : 1-CC1
Format : EIA-608
Muxing mode : SCTE 128 / DTVCC Transport
Muxing mode, more info : Muxed in Video #1
Duration : 4 h 7 min
Bit rate mode : Constant
Stream size : 0.00 Byte (0%)
CaptionServiceName : CC1

WWE SummerSlam 2021

Text #2
ID : 1-CC3
Format : EIA-608
Muxing mode : SCTE 128 / DTVCC Transport
Muxing mode, more info : Muxed in Video #1
Duration : 4 h 7 min
Bit rate mode : Constant
Stream size : 0.00 Byte (0%)
CaptionServiceName : CC3

Text #3
ID : 1-1
Format : EIA-708
Muxing mode : SCTE 128 / DTVCC Transport
Muxing mode, more info : Muxed in Video #1
Duration : 4 h 7 min
Bit rate mode : Constant
Stream size : 0.00 Byte (0%)

WWE SummerSlam 2021

Text #4
ID : 1-2
Format : EIA-708
Muxing mode : SCTE 128 / DTVCC Transport
Muxing mode, more info : Muxed in Video #1
Duration : 4 h 7 min
Bit rate mode : Constant
Stream size : 0.00 Byte (0%)

Complete name : WWE.SummerSlam.2021.PPV.720p.WEB.h264-HEEL.mp4
Format : MPEG-4
Format profile : Base Media
File size : 7.33 GiB
Duration : 4 h 7 min
Overall bit rate mode : Variable
Overall bit rate : 4 235 kb/s
Law rating : N/A

WWE SummerSlam 2021

Video
ID : 1
Format : AVC
Duration : 4 h 7 min
Bit rate : 4 097 kb/s
Width : 1 280 pixels
Height : 720 pixels
Display aspect ratio : 16:9
Frame rate mode : Variable
Frame rate : 30.000 FPS
Minimum frame rate : 29.412 FPS
Maximum frame rate : 1 500.000 FPS
Color space : YUV
Chroma subsampling : 4:2:0
Bit depth : 8 bits
Scan type : Progressive
Bits/(Pixel*Frame) : 0.148
Stream size : 7.09 GiB (97%)

WWE SummerSlam 2021

Audio
ID : 2
Format : AAC LC
Codec ID : mp4a-40-2
Duration : 4 h 7 min
Bit rate mode : Variable
Bit rate : 125 kb/s
Maximum bit rate : 132 kb/s
Channel(s) : 2 channels
Channel layout : L R
Sampling rate : 48.0 kHz
Frame rate : 46.875 FPS (1024 SPF)
Compression mode : Lossy
Stream size : 222 MiB (3%)
Default : Yes
Alternate group : 1

Text #1
ID : 1-CC1
Format : EIA-608
Muxing mode : SCTE 128 / DTVCC Transport
Muxing mode, more info : Muxed in Video #1
Duration : 4 h 7 min
Bit rate mode : Constant
Stream size : 0.00 Byte (0%)
CaptionServiceName : CC1

WWE SummerSlam 2021

Text #2
ID : 1-CC3
Format : EIA-608
Muxing mode : SCTE 128 / DTVCC Transport
Muxing mode, more info : Muxed in Video #1
Duration : 4 h 7 min
Bit rate mode : Constant
Stream size : 0.00 Byte (0%)
CaptionServiceName : CC3

Text #3
ID : 1-1
Format : EIA-708
Muxing mode : SCTE 128 / DTVCC Transport
Muxing mode, more info : Muxed in Video #1
Duration : 4 h 7 min
Bit rate mode : Constant
Stream size : 0.00 Byte (0%)

WWE SummerSlam 2021

Text #4
ID : 1-2
Format : EIA-708
Muxing mode : SCTE 128 / DTVCC Transport
Muxing mode, more info : Muxed in Video #1
Duration : 4 h 7 min
Bit rate mode : Constant
Stream size : 0.00 Byte (0%)

WWE SummerSlam 2021

Complete name : WWE.SummerSlam.2021.PPV.WEB.h264-HEEL.mp4
Format : MPEG-4
Format profile : Base Media
Codec ID : isom
File size : 3.09 GiB
Duration : 4 h 7 min
Overall bit rate mode : Variable
Overall bit rate : 1 784 kb/s
Law rating : N/A

Video
ID : 1
Format : AVC
Format/Info : Advanced Video
Duration : 4 h 7 min
Bit rate mode : Variable
Bit rate : 1 663 kb/s
Width : 896 pixels
Height : 504 pixels
Display aspect ratio : 16:9
Frame rate mode : Variable
Frame rate : 30.000 FPS
Minimum frame rate : 29.412 FPS
Maximum frame rate : 90 000.000 FPS
Standard : NTSC
Color space : YUV
Chroma subsampling : 4:2:0
Bit depth : 8 bits
Scan type : Progressive
Bits/(Pixel*Frame) : 0.123
Stream size : 2.86 GiB (93%)
Color primaries : BT.709
Transfer characteristics : BT.709
Matrix coefficients : BT.709
Codec configuration box : avc

WWE SummerSlam 2021

Audio
ID : 2
Format : AAC LC
Codec ID : mp4a-40-2
Duration : 4 h 7 min
Bit rate mode : Variable
Bit rate : 125 kb/s
Maximum bit rate : 128 kb/s
Channel(s) : 2 channels
Channel layout : L R
Sampling rate : 48.0 kHz
Frame rate : 46.875 FPS (1024 SPF)
Compression mode : Lossy
Stream size : 222 MiB (7%)
Default : Yes
Alternate group : 1

Text #1
ID : 1-CC1
Format : EIA-608
Muxing mode : SCTE 128 / DTVCC Transport
Muxing mode, more info : Muxed in Video #1
Duration : 4 h 7 min
Bit rate mode : Constant
Stream size : 0.00 Byte (0%)
CaptionServiceName : CC1

WWE SummerSlam 2021

Text #2
ID : 1-CC3
Format : EIA-608
Muxing mode : SCTE 128 / DTVCC Transport
Muxing mode, more info : Muxed in Video #1
Duration : 4 h 7 min
Bit rate mode : Constant
Stream size : 0.00 Byte (0%)
CaptionServiceName : CC3

Text #3
ID : 1-1
Format : EIA-708
Muxing mode : SCTE 128 / DTVCC Transport
Muxing mode, more info : Muxed in Video #1
Duration : 4 h 7 min
Bit rate mode : Constant
Stream size : 0.00 Byte (0%)

WWE SummerSlam 2021

Text #4
ID : 1-2
Format : EIA-708
Muxing mode : SCTE 128 / DTVCC Transport
Muxing mode, more info : Muxed in Video #1
Duration : 4 h 7 min
Bit rate mode : Constant
Stream size : 0.00 Byte (0%)

Complete name : WWE.SummerSlam.2021.PPV.720p.WEB.h264-HEEL.mp4
Format : MPEG-4
Format profile : Base Media
File size : 7.33 GiB
Duration : 4 h 7 min
Overall bit rate mode : Variable
Overall bit rate : 4 235 kb/s
Law rating : N/A

WWE SummerSlam 2021

Video
ID : 1
Format : AVC
Duration : 4 h 7 min
Bit rate : 4 097 kb/s
Width : 1 280 pixels
Height : 720 pixels
Display aspect ratio : 16:9
Frame rate mode : Variable
Frame rate : 30.000 FPS
Minimum frame rate : 29.412 FPS
Maximum frame rate : 1 500.000 FPS
Color space : YUV
Chroma subsampling : 4:2:0
Bit depth : 8 bits
Scan type : Progressive
Bits/(Pixel*Frame) : 0.148
Stream size : 7.09 GiB (97%)

WWE SummerSlam 2021

Audio
ID : 2
Format : AAC LC
Codec ID : mp4a-40-2
Duration : 4 h 7 min
Bit rate mode : Variable
Bit rate : 125 kb/s
Maximum bit rate : 132 kb/s
Channel(s) : 2 channels
Channel layout : L R
Sampling rate : 48.0 kHz
Frame rate : 46.875 FPS (1024 SPF)
Compression mode : Lossy
Stream size : 222 MiB (3%)
Default : Yes
Alternate group : 1

Text #1
ID : 1-CC1
Format : EIA-608
Muxing mode : SCTE 128 / DTVCC Transport
Muxing mode, more info : Muxed in Video #1
Duration : 4 h 7 min
Bit rate mode : Constant
Stream size : 0.00 Byte (0%)
CaptionServiceName : CC1

WWE SummerSlam 2021

Text #2
ID : 1-CC3
Format : EIA-608
Muxing mode : SCTE 128 / DTVCC Transport
Muxing mode, more info : Muxed in Video #1
Duration : 4 h 7 min
Bit rate mode : Constant
Stream size : 0.00 Byte (0%)
CaptionServiceName : CC3

Text #3
ID : 1-1
Format : EIA-708
Muxing mode : SCTE 128 / DTVCC Transport
Muxing mode, more info : Muxed in Video #1
Duration : 4 h 7 min
Bit rate mode : Constant
Stream size : 0.00 Byte (0%)

WWE SummerSlam 2021

Text #4
ID : 1-2
Format : EIA-708
Muxing mode : SCTE 128 / DTVCC Transport
Muxing mode, more info : Muxed in Video #1
Duration : 4 h 7 min
Bit rate mode : Constant
Stream size : 0.00 Byte (0%)

WWE SummerSlam 2021

Complete name : WWE.SummerSlam.2021.PPV.WEB.h264-HEEL.mp4
Format : MPEG-4
Format profile : Base Media
Codec ID : isom
File size : 3.09 GiB
Duration : 4 h 7 min
Overall bit rate mode : Variable
Overall bit rate : 1 784 kb/s
Law rating : N/A

Video
ID : 1
Format : AVC
Format/Info : Advanced Video
Duration : 4 h 7 min
Bit rate mode : Variable
Bit rate : 1 663 kb/s
Width : 896 pixels
Height : 504 pixels
Display aspect ratio : 16:9
Frame rate mode : Variable
Frame rate : 30.000 FPS
Minimum frame rate : 29.412 FPS
Maximum frame rate : 90 000.000 FPS
Standard : NTSC
Color space : YUV
Chroma subsampling : 4:2:0
Bit depth : 8 bits
Scan type : Progressive
Bits/(Pixel*Frame) : 0.123
Stream size : 2.86 GiB (93%)
Color primaries : BT.709
Transfer characteristics : BT.709
Matrix coefficients : BT.709
Codec configuration box : avc

WWE SummerSlam 2021

Audio
ID : 2
Format : AAC LC
Codec ID : mp4a-40-2
Duration : 4 h 7 min
Bit rate mode : Variable
Bit rate : 125 kb/s
Maximum bit rate : 128 kb/s
Channel(s) : 2 channels
Channel layout : L R
Sampling rate : 48.0 kHz
Frame rate : 46.875 FPS (1024 SPF)
Compression mode : Lossy
Stream size : 222 MiB (7%)
Default : Yes
Alternate group : 1

Text #1
ID : 1-CC1
Format : EIA-608
Muxing mode : SCTE 128 / DTVCC Transport
Muxing mode, more info : Muxed in Video #1
Duration : 4 h 7 min
Bit rate mode : Constant
Stream size : 0.00 Byte (0%)
CaptionServiceName : CC1

WWE SummerSlam 2021

Text #2
ID : 1-CC3
Format : EIA-608
Muxing mode : SCTE 128 / DTVCC Transport
Muxing mode, more info : Muxed in Video #1
Duration : 4 h 7 min
Bit rate mode : Constant
Stream size : 0.00 Byte (0%)
CaptionServiceName : CC3

Text #3
ID : 1-1
Format : EIA-708
Muxing mode : SCTE 128 / DTVCC Transport
Muxing mode, more info : Muxed in Video #1
Duration : 4 h 7 min
Bit rate mode : Constant
Stream size : 0.00 Byte (0%)

WWE SummerSlam 2021

Text #4
ID : 1-2
Format : EIA-708
Muxing mode : SCTE 128 / DTVCC Transport
Muxing mode, more info : Muxed in Video #1
Duration : 4 h 7 min
Bit rate mode : Constant
Stream size : 0.00 Byte (0%)

Complete name : WWE.SummerSlam.2021.PPV.720p.WEB.h264-HEEL.mp4
Format : MPEG-4
Format profile : Base Media
File size : 7.33 GiB
Duration : 4 h 7 min
Overall bit rate mode : Variable
Overall bit rate : 4 235 kb/s
Law rating : N/A

WWE SummerSlam 2021

Video
ID : 1
Format : AVC
Duration : 4 h 7 min
Bit rate : 4 097 kb/s
Width : 1 280 pixels
Height : 720 pixels
Display aspect ratio : 16:9
Frame rate mode : Variable
Frame rate : 30.000 FPS
Minimum frame rate : 29.412 FPS
Maximum frame rate : 1 500.000 FPS
Color space : YUV
Chroma subsampling : 4:2:0
Bit depth : 8 bits
Scan type : Progressive
Bits/(Pixel*Frame) : 0.148
Stream size : 7.09 GiB (97%)

WWE SummerSlam 2021

Audio
ID : 2
Format : AAC LC
Codec ID : mp4a-40-2
Duration : 4 h 7 min
Bit rate mode : Variable
Bit rate : 125 kb/s
Maximum bit rate : 132 kb/s
Channel(s) : 2 channels
Channel layout : L R
Sampling rate : 48.0 kHz
Frame rate : 46.875 FPS (1024 SPF)
Compression mode : Lossy
Stream size : 222 MiB (3%)
Default : Yes
Alternate group : 1

Text #1
ID : 1-CC1
Format : EIA-608
Muxing mode : SCTE 128 / DTVCC Transport
Muxing mode, more info : Muxed in Video #1
Duration : 4 h 7 min
Bit rate mode : Constant
Stream size : 0.00 Byte (0%)
CaptionServiceName : CC1

WWE SummerSlam 2021

Text #2
ID : 1-CC3
Format : EIA-608
Muxing mode : SCTE 128 / DTVCC Transport
Muxing mode, more info : Muxed in Video #1
Duration : 4 h 7 min
Bit rate mode : Constant
Stream size : 0.00 Byte (0%)
CaptionServiceName : CC3

Text #3
ID : 1-1
Format : EIA-708
Muxing mode : SCTE 128 / DTVCC Transport
Muxing mode, more info : Muxed in Video #1
Duration : 4 h 7 min
Bit rate mode : Constant
Stream size : 0.00 Byte (0%)

WWE SummerSlam 2021

Text #4
ID : 1-2
Format : EIA-708
Muxing mode : SCTE 128 / DTVCC Transport
Muxing mode, more info : Muxed in Video #1
Duration : 4 h 7 min
Bit rate mode : Constant
Stream size : 0.00 Byte (0%)

WWE SummerSlam 2021

Complete name : WWE.SummerSlam.2021.PPV.WEB.h264-HEEL.mp4
Format : MPEG-4
Format profile : Base Media
Codec ID : isom
File size : 3.09 GiB
Duration : 4 h 7 min
Overall bit rate mode : Variable
Overall bit rate : 1 784 kb/s
Law rating : N/A

Video
ID : 1
Format : AVC
Format/Info : Advanced Video
Duration : 4 h 7 min
Bit rate mode : Variable
Bit rate : 1 663 kb/s
Width : 896 pixels
Height : 504 pixels
Display aspect ratio : 16:9
Frame rate mode : Variable
Frame rate : 30.000 FPS
Minimum frame rate : 29.412 FPS
Maximum frame rate : 90 000.000 FPS
Standard : NTSC
Color space : YUV
Chroma subsampling : 4:2:0
Bit depth : 8 bits
Scan type : Progressive
Bits/(Pixel*Frame) : 0.123
Stream size : 2.86 GiB (93%)
Color primaries : BT.709
Transfer characteristics : BT.709
Matrix coefficients : BT.709
Codec configuration box : avc

WWE SummerSlam 2021

Audio
ID : 2
Format : AAC LC
Codec ID : mp4a-40-2
Duration : 4 h 7 min
Bit rate mode : Variable
Bit rate : 125 kb/s
Maximum bit rate : 128 kb/s
Channel(s) : 2 channels
Channel layout : L R
Sampling rate : 48.0 kHz
Frame rate : 46.875 FPS (1024 SPF)
Compression mode : Lossy
Stream size : 222 MiB (7%)
Default : Yes
Alternate group : 1

Text #1
ID : 1-CC1
Format : EIA-608
Muxing mode : SCTE 128 / DTVCC Transport
Muxing mode, more info : Muxed in Video #1
Duration : 4 h 7 min
Bit rate mode : Constant
Stream size : 0.00 Byte (0%)
CaptionServiceName : CC1

WWE SummerSlam 2021

Text #2
ID : 1-CC3
Format : EIA-608
Muxing mode : SCTE 128 / DTVCC Transport
Muxing mode, more info : Muxed in Video #1
Duration : 4 h 7 min
Bit rate mode : Constant
Stream size : 0.00 Byte (0%)
CaptionServiceName : CC3

Text #3
ID : 1-1
Format : EIA-708
Muxing mode : SCTE 128 / DTVCC Transport
Muxing mode, more info : Muxed in Video #1
Duration : 4 h 7 min
Bit rate mode : Constant
Stream size : 0.00 Byte (0%)

WWE SummerSlam 2021

Text #4
ID : 1-2
Format : EIA-708
Muxing mode : SCTE 128 / DTVCC Transport
Muxing mode, more info : Muxed in Video #1
Duration : 4 h 7 min
Bit rate mode : Constant
Stream size : 0.00 Byte (0%)

Complete name : WWE.SummerSlam.2021.PPV.720p.WEB.h264-HEEL.mp4
Format : MPEG-4
Format profile : Base Media
File size : 7.33 GiB
Duration : 4 h 7 min
Overall bit rate mode : Variable
Overall bit rate : 4 235 kb/s
Law rating : N/A

WWE SummerSlam 2021

Video
ID : 1
Format : AVC
Duration : 4 h 7 min
Bit rate : 4 097 kb/s
Width : 1 280 pixels
Height : 720 pixels
Display aspect ratio : 16:9
Frame rate mode : Variable
Frame rate : 30.000 FPS
Minimum frame rate : 29.412 FPS
Maximum frame rate : 1 500.000 FPS
Color space : YUV
Chroma subsampling : 4:2:0
Bit depth : 8 bits
Scan type : Progressive
Bits/(Pixel*Frame) : 0.148
Stream size : 7.09 GiB (97%)

WWE SummerSlam 2021

Audio
ID : 2
Format : AAC LC
Codec ID : mp4a-40-2
Duration : 4 h 7 min
Bit rate mode : Variable
Bit rate : 125 kb/s
Maximum bit rate : 132 kb/s
Channel(s) : 2 channels
Channel layout : L R
Sampling rate : 48.0 kHz
Frame rate : 46.875 FPS (1024 SPF)
Compression mode : Lossy
Stream size : 222 MiB (3%)
Default : Yes
Alternate group : 1

Text #1
ID : 1-CC1
Format : EIA-608
Muxing mode : SCTE 128 / DTVCC Transport
Muxing mode, more info : Muxed in Video #1
Duration : 4 h 7 min
Bit rate mode : Constant
Stream size : 0.00 Byte (0%)
CaptionServiceName : CC1

WWE SummerSlam 2021

Text #2
ID : 1-CC3
Format : EIA-608
Muxing mode : SCTE 128 / DTVCC Transport
Muxing mode, more info : Muxed in Video #1
Duration : 4 h 7 min
Bit rate mode : Constant
Stream size : 0.00 Byte (0%)
CaptionServiceName : CC3

Text #3
ID : 1-1
Format : EIA-708
Muxing mode : SCTE 128 / DTVCC Transport
Muxing mode, more info : Muxed in Video #1
Duration : 4 h 7 min
Bit rate mode : Constant
Stream size : 0.00 Byte (0%)

WWE SummerSlam 2021

Text #4
ID : 1-2
Format : EIA-708
Muxing mode : SCTE 128 / DTVCC Transport
Muxing mode, more info : Muxed in Video #1
Duration : 4 h 7 min
Bit rate mode : Constant
Stream size : 0.00 Byte (0%)

WWE SummerSlam 2021

Complete name : WWE.SummerSlam.2021.PPV.WEB.h264-HEEL.mp4
Format : MPEG-4
Format profile : Base Media
Codec ID : isom
File size : 3.09 GiB
Duration : 4 h 7 min
Overall bit rate mode : Variable
Overall bit rate : 1 784 kb/s
Law rating : N/A

Video
ID : 1
Format : AVC
Format/Info : Advanced Video
Duration : 4 h 7 min
Bit rate mode : Variable
Bit rate : 1 663 kb/s
Width : 896 pixels
Height : 504 pixels
Display aspect ratio : 16:9
Frame rate mode : Variable
Frame rate : 30.000 FPS
Minimum frame rate : 29.412 FPS
Maximum frame rate : 90 000.000 FPS
Standard : NTSC
Color space : YUV
Chroma subsampling : 4:2:0
Bit depth : 8 bits
Scan type : Progressive
Bits/(Pixel*Frame) : 0.123
Stream size : 2.86 GiB (93%)
Color primaries : BT.709
Transfer characteristics : BT.709
Matrix coefficients : BT.709
Codec configuration box : avc

WWE SummerSlam 2021

Audio
ID : 2
Format : AAC LC
Codec ID : mp4a-40-2
Duration : 4 h 7 min
Bit rate mode : Variable
Bit rate : 125 kb/s
Maximum bit rate : 128 kb/s
Channel(s) : 2 channels
Channel layout : L R
Sampling rate : 48.0 kHz
Frame rate : 46.875 FPS (1024 SPF)
Compression mode : Lossy
Stream size : 222 MiB (7%)
Default : Yes
Alternate group : 1

Text #1
ID : 1-CC1
Format : EIA-608
Muxing mode : SCTE 128 / DTVCC Transport
Muxing mode, more info : Muxed in Video #1
Duration : 4 h 7 min
Bit rate mode : Constant
Stream size : 0.00 Byte (0%)
CaptionServiceName : CC1

WWE SummerSlam 2021

Text #2
ID : 1-CC3
Format : EIA-608
Muxing mode : SCTE 128 / DTVCC Transport
Muxing mode, more info : Muxed in Video #1
Duration : 4 h 7 min
Bit rate mode : Constant
Stream size : 0.00 Byte (0%)
CaptionServiceName : CC3

Text #3
ID : 1-1
Format : EIA-708
Muxing mode : SCTE 128 / DTVCC Transport
Muxing mode, more info : Muxed in Video #1
Duration : 4 h 7 min
Bit rate mode : Constant
Stream size : 0.00 Byte (0%)

WWE SummerSlam 2021

Text #4
ID : 1-2
Format : EIA-708
Muxing mode : SCTE 128 / DTVCC Transport
Muxing mode, more info : Muxed in Video #1
Duration : 4 h 7 min
Bit rate mode : Constant
Stream size : 0.00 Byte (0%)

Complete name : WWE.SummerSlam.2021.PPV.720p.WEB.h264-HEEL.mp4
Format : MPEG-4
Format profile : Base Media
File size : 7.33 GiB
Duration : 4 h 7 min
Overall bit rate mode : Variable
Overall bit rate : 4 235 kb/s
Law rating : N/A

WWE SummerSlam 2021

Video
ID : 1
Format : AVC
Duration : 4 h 7 min
Bit rate : 4 097 kb/s
Width : 1 280 pixels
Height : 720 pixels
Display aspect ratio : 16:9
Frame rate mode : Variable
Frame rate : 30.000 FPS
Minimum frame rate : 29.412 FPS
Maximum frame rate : 1 500.000 FPS
Color space : YUV
Chroma subsampling : 4:2:0
Bit depth : 8 bits
Scan type : Progressive
Bits/(Pixel*Frame) : 0.148
Stream size : 7.09 GiB (97%)

WWE SummerSlam 2021

Audio
ID : 2
Format : AAC LC
Codec ID : mp4a-40-2
Duration : 4 h 7 min
Bit rate mode : Variable
Bit rate : 125 kb/s
Maximum bit rate : 132 kb/s
Channel(s) : 2 channels
Channel layout : L R
Sampling rate : 48.0 kHz
Frame rate : 46.875 FPS (1024 SPF)
Compression mode : Lossy
Stream size : 222 MiB (3%)
Default : Yes
Alternate group : 1

Text #1
ID : 1-CC1
Format : EIA-608
Muxing mode : SCTE 128 / DTVCC Transport
Muxing mode, more info : Muxed in Video #1
Duration : 4 h 7 min
Bit rate mode : Constant
Stream size : 0.00 Byte (0%)
CaptionServiceName : CC1

WWE SummerSlam 2021

Text #2
ID : 1-CC3
Format : EIA-608
Muxing mode : SCTE 128 / DTVCC Transport
Muxing mode, more info : Muxed in Video #1
Duration : 4 h 7 min
Bit rate mode : Constant
Stream size : 0.00 Byte (0%)
CaptionServiceName : CC3

Text #3
ID : 1-1
Format : EIA-708
Muxing mode : SCTE 128 / DTVCC Transport
Muxing mode, more info : Muxed in Video #1
Duration : 4 h 7 min
Bit rate mode : Constant
Stream size : 0.00 Byte (0%)

WWE SummerSlam 2021

Text #4
ID : 1-2
Format : EIA-708
Muxing mode : SCTE 128 / DTVCC Transport
Muxing mode, more info : Muxed in Video #1
Duration : 4 h 7 min
Bit rate mode : Constant
Stream size : 0.00 Byte (0%)

WWE SummerSlam 2021

Complete name : WWE.SummerSlam.2021.PPV.WEB.h264-HEEL.mp4
Format : MPEG-4
Format profile : Base Media
Codec ID : isom
File size : 3.09 GiB
Duration : 4 h 7 min
Overall bit rate mode : Variable
Overall bit rate : 1 784 kb/s
Law rating : N/A

Video
ID : 1
Format : AVC
Format/Info : Advanced Video
Duration : 4 h 7 min
Bit rate mode : Variable
Bit rate : 1 663 kb/s
Width : 896 pixels
Height : 504 pixels
Display aspect ratio : 16:9
Frame rate mode : Variable
Frame rate : 30.000 FPS
Minimum frame rate : 29.412 FPS
Maximum frame rate : 90 000.000 FPS
Standard : NTSC
Color space : YUV
Chroma subsampling : 4:2:0
Bit depth : 8 bits
Scan type : Progressive
Bits/(Pixel*Frame) : 0.123
Stream size : 2.86 GiB (93%)
Color primaries : BT.709
Transfer characteristics : BT.709
Matrix coefficients : BT.709
Codec configuration box : avc

WWE SummerSlam 2021

Audio
ID : 2
Format : AAC LC
Codec ID : mp4a-40-2
Duration : 4 h 7 min
Bit rate mode : Variable
Bit rate : 125 kb/s
Maximum bit rate : 128 kb/s
Channel(s) : 2 channels
Channel layout : L R
Sampling rate : 48.0 kHz
Frame rate : 46.875 FPS (1024 SPF)
Compression mode : Lossy
Stream size : 222 MiB (7%)
Default : Yes
Alternate group : 1

Text #1
ID : 1-CC1
Format : EIA-608
Muxing mode : SCTE 128 / DTVCC Transport
Muxing mode, more info : Muxed in Video #1
Duration : 4 h 7 min
Bit rate mode : Constant
Stream size : 0.00 Byte (0%)
CaptionServiceName : CC1

WWE SummerSlam 2021

Text #2
ID : 1-CC3
Format : EIA-608
Muxing mode : SCTE 128 / DTVCC Transport
Muxing mode, more info : Muxed in Video #1
Duration : 4 h 7 min
Bit rate mode : Constant
Stream size : 0.00 Byte (0%)
CaptionServiceName : CC3

Text #3
ID : 1-1
Format : EIA-708
Muxing mode : SCTE 128 / DTVCC Transport
Muxing mode, more info : Muxed in Video #1
Duration : 4 h 7 min
Bit rate mode : Constant
Stream size : 0.00 Byte (0%)

WWE SummerSlam 2021

Text #4
ID : 1-2
Format : EIA-708
Muxing mode : SCTE 128 / DTVCC Transport
Muxing mode, more info : Muxed in Video #1
Duration : 4 h 7 min
Bit rate mode : Constant
Stream size : 0.00 Byte (0%)

Complete name : WWE.SummerSlam.2021.PPV.720p.WEB.h264-HEEL.mp4
Format : MPEG-4
Format profile : Base Media
File size : 7.33 GiB
Duration : 4 h 7 min
Overall bit rate mode : Variable
Overall bit rate : 4 235 kb/s
Law rating : N/A

WWE SummerSlam 2021

Video
ID : 1
Format : AVC
Duration : 4 h 7 min
Bit rate : 4 097 kb/s
Width : 1 280 pixels
Height : 720 pixels
Display aspect ratio : 16:9
Frame rate mode : Variable
Frame rate : 30.000 FPS
Minimum frame rate : 29.412 FPS
Maximum frame rate : 1 500.000 FPS
Color space : YUV
Chroma subsampling : 4:2:0
Bit depth : 8 bits
Scan type : Progressive
Bits/(Pixel*Frame) : 0.148
Stream size : 7.09 GiB (97%)

WWE SummerSlam 2021

Audio
ID : 2
Format : AAC LC
Codec ID : mp4a-40-2
Duration : 4 h 7 min
Bit rate mode : Variable
Bit rate : 125 kb/s
Maximum bit rate : 132 kb/s
Channel(s) : 2 channels
Channel layout : L R
Sampling rate : 48.0 kHz
Frame rate : 46.875 FPS (1024 SPF)
Compression mode : Lossy
Stream size : 222 MiB (3%)
Default : Yes
Alternate group : 1

Text #1
ID : 1-CC1
Format : EIA-608
Muxing mode : SCTE 128 / DTVCC Transport
Muxing mode, more info : Muxed in Video #1
Duration : 4 h 7 min
Bit rate mode : Constant
Stream size : 0.00 Byte (0%)
CaptionServiceName : CC1

WWE SummerSlam 2021

Text #2
ID : 1-CC3
Format : EIA-608
Muxing mode : SCTE 128 / DTVCC Transport
Muxing mode, more info : Muxed in Video #1
Duration : 4 h 7 min
Bit rate mode : Constant
Stream size : 0.00 Byte (0%)
CaptionServiceName : CC3

Text #3
ID : 1-1
Format : EIA-708
Muxing mode : SCTE 128 / DTVCC Transport
Muxing mode, more info : Muxed in Video #1
Duration : 4 h 7 min
Bit rate mode : Constant
Stream size : 0.00 Byte (0%)

WWE SummerSlam 2021

Text #4
ID : 1-2
Format : EIA-708
Muxing mode : SCTE 128 / DTVCC Transport
Muxing mode, more info : Muxed in Video #1
Duration : 4 h 7 min
Bit rate mode : Constant
Stream size : 0.00 Byte (0%)

WWE SummerSlam 2021

 

[collapse]

 

 

https://dx-tv.com/

Leave a Reply

Your email address will not be published. Required fields are marked *

This site uses Akismet to reduce spam. Learn how your comment data is processed.