WWE SummerSlam 2018 Kickoff 720p WEB HEEL mp4

WWE SummerSlam 2018 Kickoff 720p WEB HEEL mp4

 

 

 

 


 

 

 

dx-tv.com

 

 

 

 

 

 

Complete name : WWE.SummerSlam.2018.Kickoff.720p.WEB.h264-HEEL.mp4
Format : MPEG-4
Format profile : Base Media
File size : 3.74 GiB
Duration : 1 h 59 min
Overall bit rate mode : Constant
Overall bit rate : 4 504 kb/s
Writing application : Lavf58.2.103

Video
ID : 1
Format : AVC
Format/Info : Advanced Video Codec
Codec ID/Info : Advanced Video Coding
Duration : 1 h 59 min
Duration_FirstFrame : 6 ms
Bit rate mode : Constant
Bit rate : 4 372 kb/s
Width : 1 280 pixels
Height : 720 pixels
Display aspect ratio : 16:9
Frame rate mode : Constant
Color space : YUV
Chroma subsampling : 4:2:0
Bit depth : 8 bits
Scan type : Progressive
Bits/(Pixel*Frame) : 0.158
Stream size : 3.63 GiB (97%)

Audio
ID : 2
Format : AAC
Format/Info : Advanced Audio Codec
Format profile : LC
Codec ID : mp4a-40-2
Duration : 1 h 59 min
Bit rate mode : Constant
Bit rate : 125 kb/s
Channel(s) : 2 channels
Channel positions : Front: L R
Sampling rate : 48.0 kHz
Frame rate : 46.875 FPS (1024 SPF)
Compression mode : Lossy
Stream size : 107 MiB (3%)
Language : English
Default : Yes
Alternate group : 1
 

 

 

 

 

 

 

 

WWE SummerSlam 2018 Kickoff 720p WEB HEEL mp4

 

 

 

 

Watch online

 

 

Waiting finish converting video

 

 

Server 1

 

 

 

 

 

 

 

 

 

 

 

 

 

 

Server 2

 

 

 

 

 

 

 

 

 

 

 

 

 

 

 

Uploaded By Site DX-TV.com

 

 

 

open rar file to see this password

 

 

 

 

The password : DX-TV.com

 

 

 

 

 

 

Uploaded.net + rapidgator.net

 

 

 

 

 

http://shrt10.com/IMsQj

 

 

 

 

 

 

http://shrt10.com/tIgEPW
 

 

 

 

 

 

 

 

 

 

 

WWE SummerSlam 2018 Kickoff 720p WEB HEEL mp4