WWE Story Time S04E02 Growing Pains Online

Watch WWE Story Time S04E02 Growing Pains 1080p DX-TV

 

WWE Story Time

 

 WWE Story Time

 

WWE Story Time S04E02 Growing Pains Online

 

Complete name : WWE.Story.Time.S04E02.Growing.Pains.1080p.WEB.h264-HEEL.mp4
Format : MPEG-4
Format profile : Base Media
Codec ID : isom
File size : 870 MiB
Duration : 16 min 3 s
Overall bit rate mode : Variable
Overall bit rate : 7 572 kb/s
Writing application : Lavf58

WWE Story Time

Video
ID : 1
Format : AVC
Codec ID/Info : Advanced
Duration : 16 min 3 s
Bit rate : 7 371 kb/s
Nominal bit rate : 7 808 kb/s
Width : 1 920 pixels
Height : 1 080 pixels
Display aspect ratio : 16:9
Frame rate mode : Constant
Frame rate : 30.000 FPS
Color space : YUV
Chroma sampling : 4:2:0
Bit depth : 8 bits
Scan type : Progressive
Bits/(Pixel*Frame) : 0.118
Stream size : 847 MiB (97%)

WWE Story Time

Audio
ID : 2
Format : AAC LC
Format/Info : Advanced Audio
Codec ID : mp4a-40-2
Duration : 16 min 3 s
Bit rate mode : Variable
Bit rate : 192 kb/s
Maximum bit rate : 226 kb/s
Channel(s) : 2 channels
Channel layout : L R
Sampling rate : 48.0 kHz
Frame rate : 46.875 FPS (1024 SPF)
Compression mode : Lossy
Stream size : 22.2 MiB (3%)
Default : Yes
Alternate group : 1

 

 

 

WWE Story Time S04E02 Growing Pains Online

 

 

 

Watch online

 

 

Server 1

 

 

 

 

watch now

 

 

 

 

Server-2

 

 

 

WWE Story Time

 

 

WWE Story Time

 

Server-3

 

 

 

watch now

 

 

 

 

Uploaded By Site DX-TV.com

 

 

 

 

Download Links with premium High Speed   

 

 

 

dropapk.to

 

 

 

dx-tv.com

 

urlfree.net

Leave a Reply

Your email address will not be published. Required fields are marked *

This site uses Akismet to reduce spam. Learn how your comment data is processed.