WWE Steve Austins Broken Skull 720p S01E07

Watch WWE Steve Austins Broken Skull Sessions S01E07 Mark Henry 720p DX-TV

 

Steve Austins

 WWE Steve Austins Broken Skull
 

 

WWE Steve Austins Broken Skull 720p S01E07

 

 

 

Complete name : WWE.Steve.Austins.Broken.Skull.Sessions.S01E07.Mark.Henry.720p.Hi.WEB.h264-HEEL.mp4
Format : MPEG-4
Format profile : Base Media
Codec ID : isom
File size : 2.01 GiB
Duration : 1 h 20 min
Steve Austins rate : 3 557 kb/s
Writing application : Lavf58.32.104

 Steve Austins Broken Skull 720p S01E07

Video
ID : 1
Format : AVC
Format/Info : Advanced Video Codec
wprofile : [email protected]
settings : CABAC / 4 Ref Frames
Steve Austins : Yes
Format settings, : 4 frames
Codec ID : avc1
Codec ID/Info : Advanced Video Coding
Duration : 1 h 20 min
Bit rate : 3 372 kb/s
Width : 1 280 pixels
Height : 720 pixels
Steve Austins ratio : 16:9
Frame rate mode : Constant
Frame rate : 30.000 FPS
Color space : YUV
Chroma subsampling : 4:2:0
Bit depth : 8 bits
Scan type : Progressive
Bits/(Pixel*Frame) : 0.122
Stream size : 1.89 GiB (94%)
Codec configuration box : avcC

 Steve Austins Broken Skull 720p S01E07

Audio
ID : 2
Format : AAC LC
Steve Austins : Advanced Audio
Codec ID : mp4a-40-2
Duration : 1 h 20 min
Bit rate mode : Constant
Bit rate : 192 kb/s
Channel(s) : 2 channels
Channel layout : L R
Sampling rate : 48.0 kHz
Frame rate : 46.875 FPS (1024 SPF)
Steve Austins mode : Lossy
Stream size : 112 MiB (5%)
Default : Yes
Alternate group : 1

 

 

WWE Steve Austins Broken Skull 720p S01E07

 

 

 

Watch online

 

 

Server 1

 

 

 

 

watch now

 

 

 

 

Server 2

 

 

 

watch now

 

 

 

Server-3

 

 

 

Steve Austins

 

 

 

Uploaded By Site DX-TV.com

 

 

 

Download with premium account Links 

 

 

Keep2Share

 

 

nitroflare.com

 

 

rapidgator.net

 

 

uploadgig.com

 

 

 

dx-tv.com

 

urlfree.net

 88 total views,  3 views today

Leave a Reply

Your email address will not be published. Required fields are marked *

This site uses Akismet to reduce spam. Learn how your comment data is processed.

%d bloggers like this:
Optimized with PageSpeed Ninja