WWE Smackdown Live 2018 05 22 1080p HDTV Ebi

WWE Smackdown Live 2018 05 22 1080p HDTV Ebi

 

 

 

 


 

 

dx-tv.com

 

 

 

 

 

 

Complete name : WWE.Smackdown.Live.2018.05.22.1080p.HDTV.x264-Ebi.mp4
Format : MPEG-4
Format profile : Base Media / Version 2
Codec ID : mp42
File size : 5.27 GiB
Duration : 1h 26mn
Overall bit rate : 8 700 Kbps

Video
ID : 1
Format : AVC
Format/Info : Advanced Video Codec
Codec ID/Info : Advanced Video Coding
Duration : 1h 26mn
Bit rate mode : Variable
Bit rate : 8 500 Kbps
Width : 1 920 pixels
Height : 1 080 pixels
Display aspect ratio : 16:9
Frame rate mode : Constant
Frame rate : 29.970 fps
Color space : YUV
Chroma subsampling : 4:2:0
Bit depth : 8 bits
Scan type : Progressive
Bits/(Pixel*Frame) : 0.137
Stream size : 5.15 GiB (98%)

Audio
ID : 2
Format : AAC
Format/Info : Advanced Audio Codec
Format profile : LC
Codec ID : 40
Duration : 1h 26mn
Bit rate mode : Variable
Bit rate : 192 Kbps
Channel(s) : 2 channels
Channel positions : Front: L R
Sampling rate : 48.0 KHz
Compression mode : Lossy
Stream size : 119 MiB (2%)
Title : Stereo
Encoded date : UTC 2018-05-23 03:57:07
Tagged date : UTC 2018-05-23 03:57:07

 

 

 

 

 

WWE Smackdown Live 2018 05 22 1080p HDTV Ebi

 

 

 

 

Uploaded By Site DX-TV.com

 

 

 

open rar file to see this password

 

 

 

 

The password is : DX-TV.com

 

 

 

 

1080p

 

 

 

 

 

Uploaded.net + rapidgator.net

 

 

 

 

 

 
http://shrt10.com/JwEZbX
 

 
http://shrt10.com/RBr6hi
 

 
http://shrt10.com/3kUGhLO
 

 
http://shrt10.com/kPzZ
 

 

 

 

 

 

 

WWE Smackdown Live 2018 05 22 1080p HDTV Ebi