WWE SmackDown DEC 12 2020 Free Online 720p DX-TV

WWE SmackDown DEC 12 2020 Free Online 720p DX-TV

WWE SmackDown DEC

 

 WWE SmackDown DEC

 

Download Links with premium High Speed   

 

dropapk.to

http://shrt10.com/89rutEZ6F
http://shrt10.com/Aj2c7Rxb

 

 

nitroflare.com

http://shrt10.com/FbgIXHu
http://shrt10.com/GroU2JfwI

 

 

rapidgator.net

http://shrt10.com/Gsd5IoagS
http://shrt10.com/SQqkzVuhn

 

 

uploaded.net

http://shrt10.com/ZuG9cJ
http://shrt10.com/2YmhlpzPG

 

 

uploadgig.com

http://shrt10.com/EVEsFB9Ft
http://shrt10.com/DJgQHhsU

 

WWE SmackDown DEC

Watch online

 

Server 1

 

 

 

 

WWE SmackDown DEC

 

 

 

 

Server-2

 

 

 

 

watch now

 

 

 

 

Uploaded By Site DX-TV.com

 

 

[su_expand more_text=”Show More Info” less_text=”Close all Info” height=”50″ text_color=”#000000″ link_color=”#e25f8b” link_style=”button” more_icon=”icon: arrow-down” less_icon=”icon: arrow-up”]

Complete name : WWE.Friday.Night.SmackDown.2020.12.11.720p.HDTV.x264-Star.mkv
Format : Matroska
Format version : Version 4
File size : 3.12 GiB
Duration : 1 h 27 min
Overall bit rate : 5 129 kb/s

SmackDown DEC

Video
ID : 1
Format : AVC
Duration : 1 h 27 min
Bit rate : 5 000 kb/s
Width : 1 280 pixels
Height : 720 pixels
aspect ratio : 16:9
Frame rate mode : Constant
Frame rate : 29.970 FPS
Color space : YUV
Chroma subsampling : 4:2:0
Bit depth : 8 bits
Scan type : Progressive
Bits/(Pixel*Frame) : 0.181
Stream size : 2.98 GiB (96%)
Forced : No
Color range : Limited
Color primaries : BT.709
Transfer characteristics : BT.709
Matrix coefficients : BT.709

WWE SmackDown DEC

Audio
ID : 2
Format : AC-3
Format/Info : Audio Coding 3
Commercial name : Dolby Digital
Codec ID : A_AC3
Duration : 1 h 27 min
Bit rate mode : Constant
Bit rate : 128 kb/s
Channel(s) : 2 channels
Channel layout : L R
Sampling rate : 48.0 kHz
Frame rate : 31.250 FPS
Compression mode : Lossy
Delay relative to video : -5 ms
Stream size : 79.7 MiB (2%)
Title : Stereo
Service kind : Complete Main
Default : Yes
Forced : No

name : WWE.Friday.Night.SmackDown.2020.12.11.HDTV.x264-Star.mp4
Format : MPEG-4
File size : 884 MiB
Duration : 1 h 27 min
Overall bit rate : 1 419 kb/s

WWE SmackDown DEC

Video
ID : 1
Format : AVC
Duration : 1 h 27 min
Bit rate : 1 300 kb/s
Width : 720 pixels
Height : 480 pixels
aspect ratio : 16:9

Audio
ID : 2
Format : AAC LC
Format/Info : Advanced
Codec ID : mp4a-40-2
Duration : 1 h 27 min
Bit rate mode : Constant
Bit rate : 112 kb/s
Channel(s) : 2 channels
Channel layout : L R
Sampling rate : 48.0 kHz
Frame rate : 46.875 FPS
Compression mode : Lossy
Stream size : 69.6 MiB
Title : Stereo
Default : Yes

 

[/su_expand]

 

https://dx-tv.com/

Leave a Reply

Your email address will not be published. Required fields are marked *

This site uses Akismet to reduce spam. Learn how your comment data is processed.