WWE SmackDown 720p 2020 10 09 Free Online

Watch WWE SmackDown 2020 10 09 720p HDTV NWCHD DX-TV

 

WWE SmackDown

 

 WWE SmackDown

 

WWE SmackDown 720p 2020 10 09 Free Online

 

 

 

 

Complete name : WWE.Friday.Night.SmackDown.2020.10.09.720p.HDTV.x264-NWCHD.mp4
Format : MPEG-4
Format profile : Base Media
Codec ID : isom
File size : 2.76 GiB
Duration : 1 h 24 min
Overall bit rate : 4 688 kb/s
Writing application : Lavf58.27

WWE SmackDown

Video
ID : 1
Format : AVC
Duration : 1 h 24 min
Bit rate : 4 500 kb/s
Width : 1 280 pixels
Height : 720 pixels
Display aspect ratio : 16:9
Frame rate mode : Variable
Frame rate : 29.970 FPS
Color space : YUV
Chroma subsampling : 4:2:0
Bit depth : 8 bits
Scan type : Progressive
Bits/(Pixel*Frame) : 0.163
Stream size : 2.64 GiB (96%)
Color primaries : BT.709
Transfer characteristics : BT.709
Matrix coefficients : BT.709
Codec configuration box : avcC

WWE SmackDown

Audio
ID : 2
Format : AAC LC
Format/Info : Advanced Audio
Codec ID : mp4a-40-2
Duration : 1 h 24 min
Bit rate mode : Constant
Bit rate : 192 kb/s
Channel(s) : 2 channels
Channel layout : L R
Sampling rate : 48.0 kHz
Frame rate : 46.875 FPS (1024 SPF)
Compression mode : Lossy
Stream size : 116 MiB (4%)
Title : Stereo
Language : English
Default : Yes
Alternate group : 1

WWE SmackDown

Kevin Owens and The Fiend set for brand-to-brand clash ahead of WWE Draft

The Fiend came calling for Kevin Owens, and KO isn’t backing down. Owens will look to bring the fight to the blue brand and his demonic opponent in a huge showdown ahead of the WWE Draft.

The Raw Superstar brought “The KO Show” to SmackDown last week with Alexa Bliss as the special guest. As Owens questioned Bliss about her recent infatuation with The Fiend, the monstrous figure crashed the set and delivered a Mandible Claw to the unsuspecting host. Bray Wyatt received a return invitation to “The KO Show” on Raw to help explain The Fiend’s actions, but he instead taught his upcoming opponent a lesson on friendship from The Firefly Fun House instead.

WWE SmackDown

Can Owens walk into the darkness and emerge with a win over The Fiend? Or will HE claim another victim in his reign of terror?

Don’t miss Friday Night SmackDown at 8/7 C on FOX to see the epic showdown between Owens and The Fiend.

 

WWE SmackDown 720p 2020 10 09 Free Online

 

 

 

 

Watch online

 

 

 

 

 

Server 1

 

 

 

 

watch now

 

 

 

 

Server-2

 

 

 

watch now

 

 

 

 

Server-3

 

 

 

WWE SmackDown

 

 

 

 

Uploaded By Site DX-TV.com

 

 

 

 

Download Free Links with normal and high Speed [ more 14 hosts ]  

 

 

 

http://shrt10.com/bFDTBD8
http://shrt10.com/0wGpQiLH
http://shrt10.com/nmOGLW
http://shrt10.com/dbPt4t2Y
http://shrt10.com/eSw6yYdyj
http://shrt10.com/N0BIfcCP
http://shrt10.com/gyWoPb
http://shrt10.com/KtwIGoD3
http://shrt10.com/PEBes
http://shrt10.com/fVy7x9ipw

 

 

 

Download Links with premium High Speed   

 

 

nitroflare.com

 

 

 

rapidgator.net

 

 

 

uploaded.net

 

 

 

uploadgig.com

 

 

 

 

 

dx-tv.com

 

urlfree.net

Leave a Reply

Your email address will not be published. Required fields are marked *

This site uses Akismet to reduce spam. Learn how your comment data is processed.