WWE Smackdown 720p 17 07 2020 Full Show Online

Watch WWE Smackdown 2020 07 17 720p HDTV Star DX-TV

 

WWE Show Online

 WWE Show Online

 

WWE Smackdown 720p 17 07 2020 Full Show Online

 

 

 

Complete name : WWE.Smackdown.2020.07.17.720p.HDTV.x264-Star.mkv
Format : Matroska
Format version : Version 4
File size : 3.49 GiB
Duration : 1 h 27 min
Overall bit rate : 5 689 kb/s
Writing library : Lavf58.29.100
Detection Type : Per level 1

 Smackdown 720p 17 07 2020 Full Show Online

Video
ID : 1
Format : AVC
Format/Info : Advanced
profile : [email protected]
Format settings : CABAC
WWE Show Online, CABAC : Yes
settings, : 4 frames
Codec ID : WWE Show Online
Duration : 1 h 27 min
Bit rate : 5 500 kb/s
Width : 1 280 pixels
Height : 720 pixels
Display aspect ratio : 16:9
Frame rate mode : Constant
Frame rate : 59.940 (60000/1001) FPS
Color space : YUV
Chroma subsampling : 4:2:0
Bit depth : 8 bits
Scan type : Progressive
Bits/(Pixel*Frame) : 0.100
Stream size : 3.30 GiB (95%)
Default : Yes
Forced : No
Color range : Limited
Color primaries : BT.709
Transfer WWE Show Online : BT.709
Matrix coefficients : BT.709

 Smackdown 720p 17 07 2020 Full Show Online

Audio
ID : 2
Format : AC-3
Format/Info : Audio Coding 3
Commercial name : WWE Show Online
Codec ID : A_AC3
Duration : 1 h 27 min
Bit rate mode : Constant
Bit rate : 192 kb/s
Channel(s) : 2 channels
Channel layout : L R
Sampling rate : 48.0 kHz
Frame rate : 31.250 FPS (1536 SPF)
Compression mode : Lossy
WWE Show Online video : -5 ms
Stream size : 121 MiB (3%)
Title : Stereo
Service kind : Complete Main
Default : Yes
Forced : No

 

 

WWE Smackdown 720p 17 07 2020 Full Show Online

 

 

 

Watch online

 

 

Server 1

 

 

 

 

watch now

 

 

 

 

Server 2

 

 

 

watch now

 

 

 

Server-3

 

 

 

watch now

 

 

 

Uploaded By Site DX-TV.com

 

 

 

Download with premium account Links 

 

 

Keep2Share

 

 

nitroflare.com

 

 

rapidgator.net

 

 

uploadgig.com

 

 

 

dx-tv.com

 

urlfree.net

 224 total views,  1 views today

Leave a Reply

Your email address will not be published. Required fields are marked *

This site uses Akismet to reduce spam. Learn how your comment data is processed.

%d bloggers like this: