WWE SmackDown 2021 Jan 01 720p Full Show Online DX-TV

WWE SmackDown 2021 Jan 01 720p WEB DX-TV

WWE SmackDown 2021 Jan 01

 WWE SmackDown 2021 Jan 01

 

Download Links with premium High Speed   

 

 

nitroflare.com

http://shrt10.com/26ZUcBeaQ
http://shrt10.com/gOk48

 

 

rapidgator.net

http://shrt10.com/BNgIg0qeN
http://shrt10.com/Ud4TIKb

 

 

uploaded.net

http://shrt10.com/WO2UTiVfJ

 

 

uploadgig.com

http://shrt10.com/Fp6gQML3
http://shrt10.com/Yu2t7WtJ

 

Watch online

 

Server 1

 

 

 

 

WWE SmackDown 2021 Jan 01

 

 

 

 

Server-2

 

 

 

 

watch now

 

 

Uploaded By Site DX-TV.com

 

 

Complete name : WWE.SmackDown.2021.01.01.720p.WEB.h264-HEEL.mp4
Format : MPEG-4
Format profile : Base Media
Codec ID : isom
File size : 5.63 GiB
Duration : 1 h 26 min
Overall bit rate mode : Variable
Overall bit rate : 9 265 kb/s
Movie name : WWE SMACKDOWN
Law rating : TV-PG (DLSV)
Writing application : Lavf58.63.100

WWE SmackDown 2021 Jan 01

Video
ID : 1
Format : AVC
Format/Info : Advanced Video Codec
Duration : 1 h 26 min
Bit rate mode : Variable
Bit rate : 9 095 kb/s
Maximum bit rate : 12.0 Mb/s
Width : 1 280 pixels
Height : 720 pixels
Display aspect ratio : 16:9
Frame rate mode : Variable
Frame rate : 59.940 (60000/1001) FPS
Color space : YUV
Chroma subsampling : 4:2:0
Bit depth : 8 bits
Scan type : Progressive
Bits/(Pixel*Frame) : 0.165
Stream size : 5.52 GiB (98%)
Color range : Limited
Color primaries : BT.709
Transfer characteristics : BT.709
Matrix coefficients : BT.709
Codec configuration box : avc

WWE SmackDown 2021 Jan 01

Audio
ID : 2
Format : AAC LC
Format/Info : Advanced Audio
Codec ID : mp4a-40-2
Duration : 1 h 26 min
Source duration : 1 h 26 min
Bit rate mode : Variable
Bit rate : 157 kb/s
Maximum bit rate : 160 kb/s / 160 kb/s
Channel(s) : 2 channels
Channel layout : L R
Sampling rate : 48.0 kHz
Frame rate : 46.875 FPS (1024 SPF)
Compression mode : Lossy
Stream size : 97.9 MiB (2%)
Source stream size : 97.9 MiB (2%)
Default : Yes
Alternate group : 1
mdhd_Duration : 5216259

WWE SmackDown 2021 Jan 01

Complete name : WWE.Friday.Night.SmackDown.1st.Jan.2021.WEBRip.h264-TJ.mp4
Format : MPEG-4
Format profile : Base Media / Version 2
Codec ID : mp42
File size : 979 MiB
Duration : 1 h 26 min
Overall bit rate mode : Variable
Overall bit rate : 1 575 kb/s

Video
ID : 1
Format : AVC
Format/Info : Advanced Video
Duration : 1 h 26 min
Source duration : 1 h 26 min
Bit rate : 1 400 kb/s
Width : 720 pixels
Height : 406 pixels
Display aspect ratio : 16:9
Frame rate mode : Variable
Maximum frame rate : 59.960 FPS
Color space : YUV
Chroma subsampling : 4:2:0
Bit depth : 8 bits
Scan type : Progressive
Bits/(Pixel*Frame) : 0.080
Stream size : 869 MiB (89%)
Source stream size : 869 MiB (89%)
Color range : Limited
Color primaries : BT.709
Transfer characteristics : BT.709
Matrix coefficients : BT.709

 SmackDown 2021 Jan 01

Audio
ID : 2
Format : AAC LC
Format/Info : Advanced Audio
Codec ID : mp4a-40-2
Duration : 1 h 26 min
Bit rate mode : Constant
Bit rate : 161 kb/s
Channel(s) : 2 channels
Channel layout : L R
Sampling rate : 48.0 kHz
Frame rate : 46.875 FPS (1024 SPF)
Compression mode : Lossy
Stream size : 99.9 MiB (10%)
Title : Stereo
Default : Yes
Alternate group : 1

Text
ID : 3
Format : Timed Text
Muxing mode : sbtl
Codec ID : tx3g
Duration : 1 h 26 min
Bit rate mode : Variable
Bit rate : 186 b/s
Stream size : 117 KiB (0%)
Default : Yes
Forced : No
Alternate group : 3

WWE SmackDown 2021 

 

https://dx-tv.com/

Leave a Reply

Your email address will not be published. Required fields are marked *

This site uses Akismet to reduce spam. Learn how your comment data is processed.