WWE SmackDown 2021 05 28 Online Replay 1080p

WWE SmackDown 2021 05 28 Online Replay 720p/ 1080p NWCHD DX-TV

WWE SmackDown 2021 05 28

 WWE SmackDown 2021 05 28

 

 

 

Download Links with High Speed


 

Dopapk

 

 

Show Links

 

http://shrt10.com/AzzEIif
http://shrt10.com/xQ6S2p2eR
http://shrt10.com/KTHT4OM

 

[collapse]

 

 

Nitroflare

 

 

Show Links

 

http://shrt10.com/eGLQYYC
http://shrt10.com/rJjYm
http://shrt10.com/4MbkI

 

[collapse]

 

 

Rapidgator

 

 

Show Links

 

http://shrt10.com/UrpCnQ9c
http://shrt10.com/5Psqm83SZ
http://shrt10.com/0KlGB3DHH

 

[collapse]

 

 

Uploaded

 

 

Show Links

 

http://shrt10.com/OIy4m8D
http://shrt10.com/GmldpQ
http://shrt10.com/pfHr9bO

 

[collapse]

 

 

Watch online

 

Server 1

 

 

 

 

WWE SmackDown 2021 05 28

 

 

 

 

Server-2

 

 

 

 

watch now

 

 

 

|Server-4

 

 

 

 

watch now

 

 

Uploaded By Site DX-TV.com

 

 

Show Info This Show

 

 

Complete name : WWE.Friday.Night.SmackDown.2021.05.28.720p.HDTV.x264-NWCHD.mp4
Format : MPEG-4
Format profile : Base Media
Codec ID : isom
File size : 2.73 GiB
Duration : 1 h 22 min
Overall bit rate : 4 720 kb/s

WWE SmackDown 2021 05 28

Video
ID : 1
Format : AVC
Format/Info : Advanced Video
Duration : 1 h 22 min
Bit rate : 4 500 kb/s
Width : 1 280 pixels
Height : 720 pixels
Display aspect ratio : 16:9
Frame rate mode : Variable
Frame rate : 29.970 (29970/1000) FPS
Minimum frame rate : 11.316 FPS
Maximum frame rate : 29.970 FPS
Original frame rate : 29.970 (30000/1001) FPS
Color space : YUV
Chroma subsampling : 4:2:0
Bit depth : 8 bits
Scan type : Progressive
Bits/(Pixel*Frame) : 0.163
Stream size : 2.62 GiB (96%)
Color primaries : BT.709
Transfer characteristics : BT.709
Matrix coefficients : BT.709
Codec configuration box : avcC

Audio
ID : 2
Format : AAC LC
Format/Info : Advanced Audio
Codec ID : mp4a-40-2
Duration : 1 h 22 min
Bit rate mode : Constant
Bit rate : 192 kb/s
Channel(s) : 2 channels
Channel layout : L R
Sampling rate : 48.0 kHz
Frame rate : 46.875 FPS
Compression mode : Lossy
Stream size : 114 MiB (4%)
Title : Stereo
Language : English
Default : Yes
Alternate group : 1

WWE SmackDown 2021

Complete name : WWE.Friday.Night.SmackDown.2021.05.28.1080p.HDTV.x264-NWCHD.mp4
Format : MPEG-4
Format profile : Base Media
File size : 4.76 GiB
Duration : 1 h 22 min
Overall bit rate mode : Variable
Overall bit rate : 8 230 kb/s

Video
ID : 1
Format : AVC
Format/Info : Advanced Video
Bit rate : 8 000 kb/s
Width : 1 920 pixels
Height : 1 080 pixels
Display aspect ratio : 16:9
Frame rate mode : Constant
Frame rate : 29.970 (30000/1001) FPS
Color space : YUV
Chroma subsampling : 4:2:0
Bit depth : 8 bits
Scan type : Progressive
Bits/(Pixel*Frame) : 0.129
Stream size : 4.65 GiB (98%)
Color range : Limited
Color primaries : BT.709
Transfer characteristics : BT.709
Matrix coefficients : BT.709
Codec configuration box : avcC

Audio
ID : 2
Format : AAC LC
Format/Info : Advanced Audio
Codec ID : mp4a-40-2
Duration : 1 h 22 min
Bit rate mode : Variable
Bit rate : 192 kb/s
Channel(s) : 2 channels
Channel layout : L R
Sampling rate : 48.0 kHz
Frame rate : 46.875 FPS (1024 SPF)
Compression mode : Lossy
Stream size : 114 MiB (2%)
Title : Stereo / Stereo
Language : English
Default : Yes
Alternate group : 1

WWE SmackDown 2021

Complete name : WWE.Friday.Night.SmackDown.2021.05.28.HDTV.x264-NWCHD.mp4
Format : MPEG-4
Format profile : Base Media
Codec ID : isom
File size : 951 MiB
Duration : 1 h 22 min
Overall bit rate : 1 606 kb/s

Video
ID : 1
Format : AVC
Format/Info : Advanced Video
Duration : 1 h 22 min
Bit rate : 1 400 kb/s
Width : 704 pixels
Height : 400 pixels
Display aspect ratio : 16:9
Frame rate mode : Variable
Frame rate : 29.970 (29970/1000) FPS
Minimum frame rate : 11.316 FPS
Maximum frame rate : 29.970 FPS
Original frame rate : 29.970 (30000/1001) FPS
Color space : YUV
Chroma subsampling : 4:2:0
Bit depth : 8 bits
Scan type : Progressive
Bits/(Pixel*Frame) : 0.166
Stream size : 833 MiB (88%)
Color primaries : BT.709
Transfer characteristics : BT.709
Matrix coefficients : BT.709
Codec configuration box : avcC

WWE SmackDown 2021

Audio
ID : 2
Format : AAC LC
Format/Info : Advanced Audio
Codec ID : mp4a-40-2
Duration : 1 h 22 min
Bit rate mode : Constant
Bit rate : 192 kb/s
Channel(s) : 2 channels
Channel layout : L R
Sampling rate : 48.0 kHz
Frame rate : 46.875 FPS
Compression mode : Lossy
Stream size : 114 MiB (12%)
Title : Stereo
Language : English
Default : Yes
Alternate group : 1

 

WWE SmackDown 2021

[collapse]

 

 

https://dx-tv.com/

Leave a Reply

Your email address will not be published. Required fields are marked *

This site uses Akismet to reduce spam. Learn how your comment data is processed.