WWE SmackDown 2020 12 04 Full Show Free 720p DX-TV

WWE SmackDown 2020 12 04 HDTV NWCHD /720p DX-TV

WWE SmackDown 2020 12 04

 

 WWE SmackDown 2020 12 04

 

[su_expand more_text=”Show More Info” less_text=”Close all Info” height=”30″ text_color=”#000000″ link_color=”#e25f8b” link_style=”button” more_icon=”icon: arrow-down” less_icon=”icon: arrow-up”]

Complete name : WWE.Friday.Night.SmackDown.2020.12.04.HDTV.x264-NWCHD.mp4
Format : MPEG-4
Format profile : Base Media
Codec ID : isom
File size : 975 MiB
Duration : 1 h 24 min
Overall bit rate : 1 620 kb/s
Writing application : Lavf58.27.103

WWE SmackDown 2020 12 04

Video
ID : 1
Format : AVC
Duration : 1 h 24 min
Bit rate : 1 400 kb/s
Width : 704 pixels
Height : 400 pixels
Display aspect ratio : 16:9
Frame rate mode : Variable
Frame rate : 29.970 FPS
Color space : YUV
Chroma subsampling : 4:2:0
Bit depth : 8 bits
Scan type : Progressive
Bits/(Pixel*Frame) : 0.166
Stream size : 854 MiB (88%)
Color range : Limited
Color primaries : BT.709
Transfer characteristics : BT.709
Matrix coefficients : BT.709
Codec configuration box : avc

WWE SmackDown 2020 

Audio
ID : 2
Format : AAC LC
Format/Info : Advanced Audio
Codec ID : mp4a-40-2
Duration : 1 h 24 min
Bit rate mode : Constant
Bit rate : 192 kb/s
Channel(s) : 2 channels
Channel layout : L R
Sampling rate : 48.0 kHz
Frame rate : 46.875 FPS (1024 SPF)
Compression mode : Lossy
Stream size : 115 MiB (12%)
Title : Stereo
Language : English
Default : Yes
Alternate group : 1

SmackDown 2020 12 04

Name : WWE.Friday.Night.SmackDown.2020.12.04.720p.HDTV.x264-NWCHD.mp4
Format : MPEG-4
Format profile : Base Media
Codec ID : isom
File size : 2.79 GiB
Duration : 1 h 24 min
Overall bit rate : 4 745 kb/s
Writing application : Lavf58.51.101

Video
ID : 1
Format : AVC
Duration : 1 h 24 min
Bit rate : 4 500 kb/s
Width : 1 280 pixels
Height : 720 pixels
Display aspect ratio : 16:9
Frame rate mode : Variable
Frame rate : 29.970 (30000/1001) FPS
Color space : YUV
Chroma subsampling : 4:2:0
Bit depth : 8 bits
Scan type : Progressive
Bits/(Pixel*Frame) : 0.163
Stream size : 2.67 GiB (96%)
Color primaries : BT.709
Transfer characteristics : BT.709
Matrix coefficients : BT.709
Codec configuration box : av

WWE 2020 12 04

Audio
ID : 2
Format : AAC LC
Format/Info : Advanced Audio
Codec ID : mp4a-40-2
Duration : 1 h 24 min
Bit rate mode : Constant
Bit rate : 192 kb/s
Channel(s) : 2 channels
Channel layout : L R
Sampling rate : 48.0 kHz
Frame rate : 46.875 FPS
Compression mode : Lossy
Stream size : 115 MiB
Title : Stereo
Language : English
Default : Yes
Alternate group : 1

 

 

[/su_expand]

 

 

Watch online

 

Server 1

 

 

 

 

WWE SmackDown 2020 12 04

 

 

 

 

Server-2

 

 

 

 

watch now

 

 

 

 

Uploaded By Site DX-TV.com

 

SmackDown 2020 12 04

 

 

 

dropapk.to

http://shrt10.com/p4DK11vWY
http://shrt10.com/OPFeRja

 

 

nitroflare.com

http://shrt10.com/4EwNyZGS
http://shrt10.com/BuJxVQS

 

 

rapidgator.net

http://shrt10.com/WFzNuE
http://shrt10.com/anSy1mix

 

 

uploaded.net

http://shrt10.com/KM4Z6
http://shrt10.com/VMp5NQXB

 

 

uploadgig.com

http://shrt10.com/uSKEIKeS
http://shrt10.com/9W3nEsL

 

https://dx-tv.com/watch-free-wwe-smackdown-720p-2020-09-18-59-fps/

Leave a Reply

Your email address will not be published. Required fields are marked *

This site uses Akismet to reduce spam. Learn how your comment data is processed.