WWE SmackDown 2020 01 24 Full Show Online Star

WWE SmackDown 2020 01 24 Full Show Online Star DX-TV

 

 

WWE SmackDown

 

 

 

 

dx-tv.com

 

 

 

 

WWE SmackDown 2020 01 24 Full Show Online Star

 

 

Two days before she will challenge SmackDown Women’s Champion Bayley at Royal Rumble, Lacey Evans sat down for an emotional discussion

with Michael Cole to discuss Bayley and Sasha being bullies and showing a lack of locker-room leadership, her own tough upbringing, her service in

the Marines and how important it is for her to be an inspiration. After putting Sasha on a shelf for interacting with her daughter, she insisted she would do the same to Bayley at Royal Rumble

 

 
Complete name : WWE.SmackDown.2020.01.24.HDTV.x264-Star.mp4
Format : MPEG-4
Format profile : Base Media
File size : 1.01 GiB
Duration : 1 h 27 min
Overall bit rate : 1 652 kb/s

Video
ID : 1
Format : AVC
Duration : 1 h 27 min
Bit rate : 1 500 kb/s
Width : 720 pixels
Height : 406 pixels
Display aspect ratio : 16:9
Frame rate mode : Constant
Frame rate : 25.000 FPS
Color space : YUV
Chroma subsampling : 4:2:0
Bit depth : 8 bits
Scan type : Progressive
Bits/(Pixel*Frame) : 0.205
Stream size : 931 MiB (90%)
Color range : Limited
Color primaries : BT.601 PAL
Transfer characteristics : BT.709
Matrix coefficients : BT.601
Codec configuration box : avcC

Audio
ID : 2
Format : AAC LC
Format/Info : Advanced Audio Codec Low Complexity
Codec ID : mp4a-40-2
Duration : 1 h 27 min
Bit rate mode : Constant
Bit rate : 159 kb/s
Channel(s) : 2 channels
Channel layout : L R
Sampling rate : 48.0 kHz
Frame rate : 46.875 FPS (1024 SPF)
Compression mode : Lossy
Stream size : 99.6 MiB (10%)
Title : Stereo
Language : any
Default : Yes
Alternate group : 1

 

 

 

 

 

 

Watch online

 

 

Server 1

 

 

watch now

 

 

WWE SmackDown 2020 01 24 Full Show Online Star

 

 

 

Uploaded By Site DX-TV.com

 

 

 

 

 

Download VIP Members FTP server Download 1 Link and Free Links 

 

 

 

Limited Time will be removed after 90 days if you need available again pm email admin

 

[member]
 

FTP Link Download high speed

[/member]

1fichier.com 

 

 

dailyuploads.net

 

 

DDL.to

 

 

dl.free.fr

 

 

earn4files.com

 

 

filerio.in

 

 

katfile.com

 

 

rockfile.co

 

 

Ubloadbank.com

 

 

 

Download with premium account Links 

 

 

nitroflare.com

 

 

rapidgator.net

 

 

uploaded.net