WWE SmackDown 1080p 26 06 2020 Full Show

Watch WWE SmackDown 26 06 2020 1080p HDTV Star DX-TV

 

WWE SmackDown Full Show

WWE SmackDown
 

 

WWE SmackDown 1080p 26 06 2020 Full Show

 

 

 

Complete name : WWE.Smackdown.2020.06.26.1080p.HDTV.x264-Star.mkv
Format : Matroska
Format version : Version 4
File size : 11.4 GiB
Duration : 1 h 28 min
Overall bit rate : 18.5 Mb/s
Encoded date : UTC 2020-06-27 07:10:19
Writing application : WWE
Writing library : Lavf58.29.100
Error WWE Type : Per level 1

 SmackDown 1080p 26 06 2020 Full Show

Video
ID : 1
Format : AVC
Format/Info : Advanced Video Codec
aprofile : [email protected]
settings : CABAC / 4 Ref Frames
WWE settings, CABAC : Yes
Format settings, : 4 frames
Codec ID : V_MPEG4/ISO/AVC
Duration : 1 h 28 min
Bit rate : 18.0 Mb/s
Width : 1 920 pixels
Height : 1 080 pixels
Display aspect ratio : 16:9
Frame rate mode : Constant
Frame rate : 59.940 (60000/1001) FPS
Color space : YUV
Chroma subsampling : 4:2:0
Bit depth : 8 bits
Scan type : Progressive
Bits/(Pixel*Frame) : 0.145
Stream size : 10.9 GiB (96%)
Forced : No
Color range : Limited
Color primaries : BT.709
Transfer WWE: BT.709
Matrix coefficients : BT.709

SmackDown 1080p 26 06 2020 Full Show

Audio
ID : 2
Format : AC-3
Format/Info : Audio Coding 3
Commercial name : WWE
Codec ID : A_AC3
Duration : 1 h 28 min
Bit rate mode : Constant
Bit rate : 448 kb/s
Channel(s) : 6 channels
Channel layout : L R C LFE Ls Rs
Sampling rate : 48.0 kHz
Frame rate : 31.250 FPS (1536 SPF)
WWE mode : Lossy
Delay relative to video : -5 ms
Stream size : 283 MiB (2%)
Title : Surround
Service kind : Complete Main
Default : Yes
Forced : No

 

 

WWE SmackDown 1080p 26 06 2020 Full Show

 

 

 

Watch online

 

 

Server 1

 

 

 

 

watch now

 

 

 

 

Server 2

 

 

 

watch now

 

 

 

Server-3

 

 

 

WWE

 

 

 

Uploaded By Site DX-TV.com

 

 

 

Download with premium account Links 

 

 

Keep2Share

 

 

rapidgator.net

 

 

uploadgig.com

 

 

 

dx-tv.com

 

urlfree.net

 205 total views,  2 views today

One thought on “WWE SmackDown 1080p 26 06 2020 Full Show

Leave a Reply

Your email address will not be published. Required fields are marked *

This site uses Akismet to reduce spam. Learn how your comment data is processed.

%d bloggers like this: