WWE Royal Rumble 2021 1080p Full Show HDTV Star

WWE Royal Rumble 2021 1080p / 720p Full Show HDTV Star DX-TV

WWE Royal Rumble 2021 1080p

 WWE Royal Rumble 2021 1080p

 

Download Links with premium High Speed   

 

 

dropapk.to

http://shrt10.com/8J2Bxb7GI             1080p

 

 

nitroflare.com

http://shrt10.com/R98gX                    720p

 

 

rapidgator.net

http://shrt10.com/VQKsKwuK          720p

http://shrt10.com/YOeOkGI            1080p

 

uploaded.net

 

1080p

 

http://shrt10.com/5eYg0HT
http://shrt10.com/gMiQVIx
http://shrt10.com/d9cvpWBR1

 

 

 

Watch WWE Royal Rumble online

 

Server 1

 

 

 

 

WWE Royal Rumble

 

 

 

 

Server-2

 

 

 

 

watch now

 

 

Uploaded By Site DX-TV.com

 

 

Complete name : WWE.Royal.Rumble.2021.PPV.1080p.HDTV.x264-Star.mkv
Format : Matroska
Format version : Version 4
File size : 13.1 GiB
Duration : 3 h 50 min
Overall bit rate : 8 118 kb/s

WWE Royal Rumble

Video
ID : 1
Format : AVC
Format/Info : Advanced Video
Duration : 3 h 50 min
Bit rate : 8 000 kb/s
Width : 1 920 pixels
Height : 1 080 pixels
Display aspect ratio : 16:9
Frame rate mode : Constant
Frame rate : 29.970 FPS
Color space : YUV
Chroma subsampling : 4:2:0
Bit depth : 8 bits
Scan type : Progressive
Bits/(Pixel*Frame) : 0.129
Stream size : 12.6 GiB (96%)
Forced : No
Color range : Limited
Color primaries : BT.709
Transfer characteristics : BT.709
Matrix coefficients : BT.709

Royal Rumble

Audio
ID : 2
Format : AC-3
Format/Info : Audio Coding 3
Commercial name : Dolby Digital
Codec ID : A_AC3
Duration : 3 h 50 min
Bit rate mode : Constant
Bit rate : 128 kb/s
Channel(s) : 2 channels
Channel layout : L R
Sampling rate : 48.0 kHz
Frame rate : 31.250 FPS
Compression mode : Lossy
Delay relative to video : -5 ms
Stream size : 211 MiB (2%)
Title : Stereo
Service kind : Complete Main
Default : Yes
Forced : No

WWE Royal

Complete name : WWE.Royal.Rumble.2021.PPV.720p.HDTV.x264-Star.mkv
Format : Matroska
Format version : Version 4
File size : 6.63 GiB
Duration : 3 h 50 min
Overall bit rate : 4 124 kb/s

Video
ID : 1
Format : AVC
Format/Info : Advanced Video
Duration : 3 h 50 min
Bit rate : 4 000 kb/s
Width : 1 280 pixels
Height : 720 pixels
Display aspect ratio : 16:9
Frame rate mode : Constant
Frame rate : 29.970 FPS
Color space : YUV
Chroma subsampling : 4:2:0
Bit depth : 8 bits
Scan type : Progressive
Bits/(Pixel*Frame) : 0.145
Stream size : 6.29 GiB (95%)
Forced : No
Color range : Limited
Color primaries : BT.709
Transfer characteristics : BT.709
Matrix coefficients : BT.709

WWE Royal Rumble

Audio
ID : 2
Format : AC-3
Format/Info : Audio Coding 3
Commercial name : Dolby Digital
Codec ID : A_AC3
Duration : 3 h 50 min
Bit rate mode : Constant
Bit rate : 128 kb/s
Channel(s) : 2 channels
Channel layout : L R
Sampling rate : 48.0 kHz
Frame rate : 31.250 FPS
Compression mode : Lossy
Delay relative to video : -5 ms
Stream size : 211 MiB (3%)
Title : Stereo
Service kind : Complete Main
Default : Yes
Forced : No

Audio
ID : 2
Format : AC-3
Format/Info : Audio Coding 3
Commercial name : Dolby Digital
Codec ID : A_AC3
Duration : 3 h 50 min
Bit rate mode : Constant
Bit rate : 128 kb/s
Channel(s) : 2 channels
Channel layout : L R
Sampling rate : 48.0 kHz
Frame rate : 31.250 FPS
Compression mode : Lossy
Delay relative to video : -5 ms
Stream size : 211 MiB (3%)
Title : Stereo
Service kind : Complete Main
Default : Yes
Forced : No

https://dx-tv.com/

You May Also Like

Leave a Reply

Your email address will not be published. Required fields are marked *

This site uses Akismet to reduce spam. Learn how your comment data is processed.