WWE Royal Rumble 2020 PPV VOD 1080p

WWE Royal Rumble 2020 PPV VOD 1080p HEEL DX-TV

Royal Rumble

 

 

WWE Royal Rumble

 

 

 

 

WWE Royal Rumble 2020 PPV VOD 1080p

 

 

WWE Royal Rumble

 

 

Complete name : WWE.Royal.Rumble.2020.PPV.VOD.Version.1080p.WEB.h264-HEEL.mp4
Format : MPEG-4
File size : 16.4 GiB
Duration : 4 h 6 min
Overall bit rate : 9 526 kb/s

Video
ID : 1
Format : AVC
Duration : 4 h 6 min
Bit rate : 7 748 kb/s
Width : 1 920 pixels
Height : 1 080 pixels
Display aspect ratio : 16:9
Frame rate : 30.000 FPS

ID : 2
Format : AAC LC
Duration : 4 h 6 min
Bit rate : 192 kb/s
Channel(s) : 2 channels
Channel layout : L R
Sampling rate : 48.0 kHz
Frame rate : 46.875 FPS (1024 SPF)
Compression mode : Lossy
Stream size : 340 MiB (2%)
Language : English

ID : 3
Format : AAC LC
Duration : 4 h 6 min
Bit rate : 192 kb/s
Channel(s) : 2 channels
Channel layout : L R
Sampling rate : 48.0 kHz
Frame rate : 46.875 FPS (1024 SPF)
Compression mode : Lossy
Stream size : 340 MiB (2%)
Language : Spanish
WWE Royal Rumble

ID : 4
Format : AAC LC
Duration : 4 h 6 min
Bit rate : 192 kb/s
Channel(s) : 2 channels
Channel layout : L R
Sampling rate : 48.0 kHz
Frame rate : 46.875 FPS (1024 SPF)
Compression mode : Lossy
Stream size : 340 MiB (2%)
Language : German

ID : 5
Format : AAC LC
Duration : 4 h 6 min
Bit rate : 192 kb/s
Channel(s) : 2 channels
Channel layout : L R
Sampling rate : 48.0 kHz
Frame rate : 46.875 FPS (1024 SPF)
Compression mode : Lossy
Stream size : 340 MiB (2%)
Language : French

ID : 6
Format : AAC LC
Duration : 4 h 6 min
Bit rate : 192 kb/s
Channel(s) : 2 channels
Channel layout : L R
Sampling rate : 48.0 kHz
Frame rate : 46.875 FPS (1024 SPF)
Compression mode : Lossy
Stream size : 340 MiB (2%)
Language : Hindi

Language : English / Spanish / German / French / Hind / Japanese / Chinese / Portuguese / Russian

 

https://dx-tv.com/watch-wwe-raw-2019-10-28-1080i/

 

WWE Royal Rumble

 

Watch online

 

Server 1

 

 

watch now

 

WWE Royal Rumble 2020 PPV 1080p

 

Uploaded By Site DX-TV.com

WWE Royal Rumble

 

 

Download with premium account LinksĀ 

 

 

Keep2Share

 

 

nitroflare.com

https://shrt10.com/rBKzE0M
https://shrt10.com/3HBNtl
https://shrt10.com/uctE9Lf
https://shrt10.com/UavxN

 

rapidgator.net

 

 

uploadgig.com

 

 

dx-tv.com