WWE Royal Rumble 2020 Kickoff 1080p

WWE Royal Rumble 2020 Kickoff 1080p DX-TV

 

 

WWE Royal Rumble

 

 

 

 

dx-tv.com

 

 

 

 

WWE Royal Rumble 2020 Kickoff 1080p

 

 

 

 

Complete name : WWE.Royal.Rumble.2020.Kickoff.1080p.WEB.h264-HEEL.mp4
Format : MPEG-4
Format profile : Base Media
Codec ID : isom
File size : 4.73 GiB
Duration : 1 h 59 min
Overall bit rate mode : Variable
Overall bit rate : 5 688 kb/s
Law rating : N/A
Writing application : Lavf58.32.104

Video
ID : 1
Format : AVC
Duration : 1 h 59 min
Bit rate : 5 550 kb/s
Width : 1 920 pixels
Height : 1 080 pixels
Display aspect ratio : 16:9
Frame rate mode : Variable
Frame rate : 30.000 FPS
Minimum frame rate : 29.412 FPS
Maximum frame rate : 30.303 FPS
Color space : YUV
Chroma subsampling : 4:2:0
Bit depth : 8 bits
Scan type : Progressive
Bits/(Pixel*Frame) : 0.089
Stream size : 4.61 GiB (98%)
Codec configuration box : avcC

Audio
ID : 2
Format : AAC LC
Format/Info : Advanced Audio Codec Low Complexity
Codec ID : mp4a-40-2
Duration : 1 h 59 min
Bit rate mode : Variable
Bit rate : 125 kb/s
Maximum bit rate : 134 kb/s
Channel(s) : 2 channels
Channel layout : L R
Sampling rate : 48.0 kHz
Frame rate : 46.875 FPS (1024 SPF)
Compression mode : Lossy
Stream size : 107 MiB (2%)
Default : Yes
Alternate group : 1

Text #1
ID : 1-CC1
Format : EIA-608
Muxing mode : SCTE 128 / DTVCC Transport
Muxing mode, more info : Muxed in Video #1
Duration : 1 h 59 min
Bit rate mode : Constant
Stream size : 0.00 Byte (0%)
CaptionServiceName : CC1

Text #2
ID : 1-CC3
Format : EIA-608
Muxing mode : SCTE 128 / DTVCC Transport
Muxing mode, more info : Muxed in Video #1
Duration : 1 h 59 min
Bit rate mode : Constant
Stream size : 0.00 Byte (0%)
CaptionServiceName : CC3

 

 

 

 

Watch online

 

 

 

Server 1

 

 

 

 

 

 

 

 

 

 

 

Server 2

 

 

 

 

 

 

 

 

 

 

Server–3

 

 

 

 

 

 

 

Server–4

 

 

 

 

 

 

WWE Royal Rumble 2020 Kickoff 1080p

 

 

 

Uploaded By Site DX-TV.com

 

 

 

 

 

1fichier.com 

 

https://shrt10.com/9fxne0
https://shrt10.com/eA1dQv48
https://shrt10.com/ztr5JX

 

dailyuploads.net

 

https://shrt10.com/orp8t
https://shrt10.com/3uXBVW
https://shrt10.com/dQb5wpJ4

 

DDL.to

https://shrt10.com/qGg9xqPsV
https://shrt10.com/Ykbnx
https://shrt10.com/XBBZpQJWm

 

earn4files.com

 

https://shrt10.com/0EB58

https://shrt10.com/Uz3VjpgG

https://shrt10.com/0juRbcxL

 

 

filerio.in

 

https://shrt10.com/0juRbcxL
https://shrt10.com/9P6LYl
https://shrt10.com/rcXNVCR
https://shrt10.com/sgVN7ao7

 

katfile.com

 

https://shrt10.com/9g52XM
https://shrt10.com/tEYCy4Ur8
https://shrt10.com/NRDAtElAV

rockfile.co

 

https://shrt10.com/lXjaBgWo
https://shrt10.com/EPLAe
https://shrt10.com/VyWxZfzzr

 

Ubloadbank.com

 

https://shrt10.com/4oRBi6
https://shrt10.com/48MYruD
https://shrt10.com/8Puii

 

Download with premium account Links 

 

 

nitroflare.com

 

 

rapidgator.net

 

 

uploaded.net