WWE Royal Rumble 2020 1080i Full HDTV 50 GB

WWE Royal Rumble 2020 1080i Feed HDTV XWD 50 GB DX-TV

 

 

WWE Royal Rumble

 

 

 

 

dx-tv.com

 

 

 

 

WWE Royal Rumble 2020 1080i Full HDTV 50 GB

 

 

 

 

 

Complete name : WWE Royal Rumble PPV FEED HDTV 1080i x264 – XWD.mkv
Format : Matroska
Format version : Version 4
File size : 50.5 GiB
Duration : 4 h 11 min
Overall bit rate mode : Variable
Overall bit rate : 28.7 Mb/s

Video
ID : 1
Duration : 4 h 11 min
Bit rate mode : Variable
Bit rate : 27.4 Mb/s
Maximum bit rate : 28.6 Mb/s
Width : 1 920 pixels
Height : 1 080 pixels
Display aspect ratio : 16:9
Frame rate mode : Constant
Frame rate : 25.000 FPS
Color space : YUV
Chroma subsampling : 4:2:0
Bit depth : 8 bits
Scan type : Interlaced
Scan order : Top Field First
Compression mode : Lossy
Bits/(Pixel*Frame) : 0.529
Stream size : 48.2 GiB (95%)
Default : Yes
Forced : No

Audio #1
ID : 2
Codec ID/Hint : MP2
Duration : 4 h 11 min
Bit rate mode : Constant
Bit rate : 192 kb/s
Channel(s) : 2 channels
Sampling rate : 48.0 kHz
Compression mode : Lossy
Delay relative to video : 23 ms
Stream size : 346 MiB (1%)
Language : English
Default : Yes
Forced : No

Audio #2
ID : 3
Format profile : Layer 2
Codec ID : A_MPEG/L2
Codec ID/Hint : MP2
Duration : 4 h 11 min
Bit rate mode : Constant
Bit rate : 192 kb/s
Channel(s) : 2 channels
Sampling rate : 48.0 kHz
Compression mode : Lossy
Delay relative to video : 15 ms
Stream size : 346 MiB (1%)
Language : English
Default : Yes
Forced : No

Audio #3
ID : 4
Format profile : Layer 2
Codec ID : A_MPEG/L2
Codec ID/Hint : MP2
Duration : 4 h 11 min
Bit rate mode : Constant
Bit rate : 192 kb/s
Channel(s) : 2 channels
Sampling rate : 48.0 kHz
Compression mode : Lossy
Delay relative to video : 15 ms
Stream size : 346 MiB (1%)
Language : English
Default : Yes
Forced : No

 

 

 

 

Watch online

 

 

 

Server 1

 

 

 

watch now

 

 

 

 

 

 

 

WWE Royal Rumble 2020 1080i Full HDTV 50 GB

 

 

 

Uploaded By Site DX-TV.com

 

 

 

 

1fichier.com 

 

https://shrt10.com/cKLnFkp
https://shrt10.com/ZINu2pBAT
https://shrt10.com/6SrDe61jo
https://shrt10.com/Fy0ca6
https://shrt10.com/RrkQ97F
https://shrt10.com/OHUmu0

 

 

dl.free.fr

 

https://shrt10.com/ON7o1H
https://shrt10.com/iOaxmEI
https://shrt10.com/9CP9M0epY
https://shrt10.com/QTLS4DL
https://shrt10.com/g8PzJtaNJ
https://shrt10.com/UoEMDX5

 

earn4files.com

 

https://shrt10.com/RWNTrBW9
https://shrt10.com/aez4AZ
https://shrt10.com/PHUuuPjgw
https://shrt10.com/9ViUw
https://shrt10.com/hmJdX0iwk
https://shrt10.com/9w7NP1ZJK

 

 

Download with premium account Links 

 

 

nitroflare.com

https://shrt10.com/1WxoRac8
https://shrt10.com/eC8aXEkHj
https://shrt10.com/MOf4bo
https://shrt10.com/jp5zP
https://shrt10.com/nhqzN
https://shrt10.com/YEtNkTKC

 

1 Link 50 GB

rapidgator.net