WWE Roman Reigns Best WrestleMania Matches 2020

Watch WWE Roman Reigns Best WrestleMania Matches 2020 1080p DX-TV

WWE

WWE Roman Reigns

 

 

WWE Roman Reigns Best WrestleMania Matches 2020

 

Complete name : WWE.Roman.Reigns.Best.WrestleMania.Matches.2020.1080p WEB.H264.DX-TV.mp4
Format : MPEG-4
Format profile : WWE
Codec ID : isom
File size : 6.58 GiB
Duration : 1 h 58 min
Overall bit rate : 7 967 kb/s
Video
ID : 1
Format : AVC
Duration : 1 h 58 min
Bit rate : 7 808 kb/s
Width : 1 920 pixels
Height : 1 080 pixels
Display aspect ratio : 16:9
Frame rate mode : WWE
Frame rate : 30.000 FPS
Color space : YUV
Chroma subsampling : 4:2:0
Bit depth : 8 bits
Scan type : WWE
Bits/(Pixel*Frame) : 0.126
Stream size : 6.41 GiB (97%)

 Roman Reigns Best WrestleMania Matches 2020

Audio
ID : 2
Format : AAC LC
Format/Info : WWEy
Codec ID : mp4a-40-2
Duration : 1 h 58 min
Bit rate mode : WWE
Bit rate : 192 kb/s
Channel(s) : 2 channels
Channel layout : L R
Sampling rate : 48.0 kHz
Frame rate : 46.875 FPS (1024 SPF)
Compression mode : Lossy
Stream size : 163 MiB (2%)
Default : Yes
Alternate group : WWE

 

Roman Reigns Best WrestleMania Matches

 

Watch online

 

 

Server 1

 

 

 

 

watch now

 

 

 

 

Server 2

 

 

 

watch now

 

 

 

WWE Roman Reigns Best WrestleMania Matches 2020

 

 

Uploaded By Site DX-TV.com

 

 

Download with Free Links 

 

 

1fichier.com

https://shrt10.com/aMbpkla
https://shrt10.com/0Aanjxr
https://shrt10.com/wmsBwv16
https://shrt10.com/EmCeZJB6u

 

DDL.to

https://shrt10.com/rlm0svS
https://shrt10.com/02Aip
https://shrt10.com/0AnE46
https://shrt10.com/cqQOX

 

 

Download with premium account Links 

 

 

Keep2Share

 

 

nitroflare.com

 

 

rapidgator.net

 

 

uploadgig.com

 

 

 

dx-tv.com

 

urlfree.net

Leave a Reply

Your email address will not be published. Required fields are marked *

This site uses Akismet to reduce spam. Learn how your comment data is processed.