WWE Roman Reigns Best WrestleMania Matches 2020 720p

Watch WWE Roman Reigns Best WrestleMania Matches 2020 720p DX-TV

Roman Reigns

 WWE

 

 

WWE Roman Reigns Best WrestleMania Matches 2020 720p

Complete name : WWE.Roman.Reigns.Best.WrestleMania.Matches.2020.720p WEB.H264.DX-TV.mp4
Format : MPEG-4
Format profile : Roman Reigns
Codec ID : isom
File size : 2.88 GiB
Duration : 1 h 58 min
Overall bit rate : 3 488 kb/s
Video
ID : 1
Format : AVC
Duration : 1 h 58 min
Bit rate : 3 372 kb/s
Width : 1 280 pixels
Height : 720 pixels
Display aspect ratio : 16:9
Frame rate mode : WWE
Frame rate : 30.000 FPS
Color space : YUV
Chroma  : 4:2:0
Bit depth : 8 bits
Scan type : WWE
Bits/(Pixel*Frame) : 0.122
Stream size : 2.77 GiB (96%)

Audio
ID : 2
Format : AAC LC
Format/Info : Roman Reigns
Codec ID : mp4a-40-2
Duration : 1 h 58 min
Bit rate mode : Roman Reigns
Bit rate : 128 kb/s
Channel(s) : 2 channels
Channel layout : L R
Sampling rate : 48.0 kHz
Frame rate : 46.875 FPS (1024 SPF)
Compression mode : Lossy
Stream size : 109 MiB (4%)
Default : Roman Reigns
Alternate group : Roman Reigns

 

 

 

Watch online

 

 

Server 1

 

 

 

 

watch now

 

 

 

 

Server 2

 

 

 

watch now

 

 

 

WWE Roman Reigns Best WrestleMania Matches 2020 720p

 

 

Uploaded By Site DX-TV.com

 

 

Download with Free Links 

 

 

1fichier.com

https://shrt10.com/pS5i0K
https://shrt10.com/7WvNibSw

 

DDL.to

https://shrt10.com/TAzdSL0
https://shrt10.com/Ghp0L

 

rockfile.co

https://shrt10.com/jRLSDGFmI
https://shrt10.com/NlGGEpsk9

 

 

Download with premium account Links 

 

 

Keep2Share

 

 

mixdrop.co

 

 

alfafile.net

 

 

nitroflare.com

 

 

rapidgator.net

 

 

uploadgig.com

 

 

 

dx-tv.com

 

urlfree.net

Leave a Reply

Your email address will not be published. Required fields are marked *

This site uses Akismet to reduce spam. Learn how your comment data is processed.

%d bloggers like this: