WWE Raw Watch Online 2020 12 28 Full Show DX-TV

WWE Raw Watch Online 2020 12 28 HDTV Star DX-TV

WWE Raw Watch Online

 WWE Raw Watch Online

 

Download Links with premium High Speed   

 

 

 

nitroflare.com

http://shrt10.com/ofCsMSc

 

 

rapidgator.net

http://shrt10.com/8B7Cfjw

 

 

uploaded.net

http://shrt10.com/HYvLf

 

 

uploadgig.com

http://shrt10.com/f5IOMgu

 

 

 

WWE Raw online

 

Server 1

 

 

 

 

WWE Raw Watch Online

 

 

 

 

Server-2

 

 

 

 

watch now

 

 

Uploaded By Site DX-TV.com

 

 

 

Complete name : WWE.Monday.Night.Raw.2020.12.28.HDTV.x264-Star.mp4
Format : MPEG-4
Format profile : Base Media / Version 2
Codec ID : mp42
File size : 1.29 GiB
Duration : 2 h 11 min
Overall bit rate : 1 405 kb/s

WWE Raw Watch Online

Video
ID : 1
Format : AVC
Duration : 2 h 11 min
Bit rate : 1 300 kb/s
Width : 720 pixels
Height : 480 pixels
Display aspect ratio : 16:9
Frame rate mode : Constant
rate : 29.970 (30000/1001) FPS
Standard : NTSC
Color space : YUV
Chroma subsampling : 4:2:0
Bit depth : 8 bits
Scan type : Progressive
Bits/(Pixel*Frame) : 0.126
Stream size : 1.18 GiB (91%)
Color range : Limited
Color primaries : BT.709
Transfer characteristics : BT.709
Matrix coefficients : BT.709
Codec configuration box : avc

WWE Raw Watch Online

Audio
ID : 2
Format : AAC LC
Format/Info : Advanced Audio
Codec ID : mp4a-40-2
Duration : 2 h 11 min
Bit rate mode : Constant
Bit rate : 111 kb/s
Channel(s) : 2 channels
Channel layout : L R
Sampling rate : 48.0 kHz
Frame rate : 46.875 FPS (1024 SPF)
Compression mode : Lossy
Stream size : 105 MiB (8%)
Title : Stereo
Default : Yes
Alternate group : 1

WWE Raw  Online

Format : AVC
Duration : 2 h 11 min
Bit rate : 1 300 kb/s
Width : 720 pixels
Height : 480 pixels
Display aspect ratio : 16:9
Frame rate mode : Constant
Frame rate : 29.970 (30000/1001) FPS
Standard : NTSC
Color space : YUV
Chroma subsampling : 4:2:0
Bit depth : 8 bits
Scan type : Progressive
Bits/(Pixel*Frame) : 0.126
Stream size : 1.18 GiB (91%)
Color range : Limited
Color primaries : BT.709
Transfer characteristics : BT.709
Matrix coefficients : BT.709
Codec configuration box : avc

WWE Raw  

Audio
ID : 2
Format : AAC LC
Format/Info : Advanced Audio
Codec ID : mp4a-40-2
Duration : 2 h 11 min
Bit rate mode : Constant
Bit rate : 111 kb/s
Channel(s) : 2 channels
Channel layout : L R
Sampling rate : 48.0 kHz
Frame rate : 46.875 FPS (1024 SPF)
Compression mode : Lossy
Stream size : 105 MiB (8%)
Title : Stereo
Default : Yes

 Raw Watch  

https://dx-tv.com/

Leave a Reply

Your email address will not be published. Required fields are marked *

This site uses Akismet to reduce spam. Learn how your comment data is processed.