WWE Raw Talk 2021 01 11 1080p DX-TV

WWE Raw Talk 2021 01 11 1080p DX-TV

WWE Raw Talk 2021

 WWE Raw Talk 2021

 

Download Links with premium High Speed   

 

 

dropapk.to

http://shrt10.com/jOLnXx

 

 

nitroflare.com

http://shrt10.com/rbayvo

 

 

rapidgator.net

http://shrt10.com/q1ZeImVfL

 

 

uploaded.net

http://shrt10.com/9NL361w

 

 

uploadgig.com

http://shrt10.com/D5CuLu

 

Watch WWE Raw Talk online

 

Server 1

 

 

 

 

WWE Raw Talk

 

 

 

 

Server-2

 

 

 

 

watch now

 

 

Uploaded By Site DX-TV.com

 

 

Complete name : WWE.Raw.Talk.2021.01.11.1080p.WEB.h264-HEEL.mp4
Format : MPEG-4
Format profile : Base Media
Codec ID : isom
File size : 831 MiB
Duration : 20 min 0 s
Overall bit rate mode : Variable
Overall bit rate : 5 810 kb/s
Writing application : Lavf58.32.104

WWE Raw Talk

Video
ID : 1
Format : AVC
Format/Info : Advanced Video Codec
Codec ID/Info : Advanced Video Coding
Duration : 20 min 0 s
Bit rate : 5 674 kb/s
Width : 1 920 pixels
Height : 1 080 pixels
Display aspect ratio : 16:9
Frame rate mode : Variable
Frame rate : 30.000 FPS
Minimum frame rate : 29.412 FPS
Maximum frame rate : 30.303 FPS
Color space : YUV
Chroma subsampling : 4:2:0
Bit depth : 8 bits
Scan type : Progressive
Bits/(Pixel*Frame) : 0.091
Stream size : 812 MiB (98%)
Codec configuration box : avc

WWE Raw Talk

Audio
ID : 2
Format : AAC LC
Format/Info : Advanced Audio Codec Low Complexity
Codec ID : mp4a-40-2
Duration : 20 min 0 s
Bit rate mode : Variable
Bit rate : 125 kb/s
Maximum bit rate : 132 kb/s
Channel(s) : 2 channels
Channel layout : L R
Sampling rate : 48.0 kHz
Frame rate : 46.875 FPS (1024 SPF)
Compression mode : Lossy
Stream size : 17.9 MiB (2%)
Default : Yes
Alternate group : 1

Text #1
ID : 1-CC1
Format : EIA-608
Muxing mode : SCTE 128 / DTVCC Transport
Muxing mode, more info : Muxed in Video #1
Duration : 20 min 0 s
Bit rate mode : Constant
Stream size : 0.00 Byte (0%)
CaptionServiceName : CC1

WWE Raw Talk

Text #2
ID : 1-CC3
Format : EIA-608
Muxing mode : SCTE 128 / DTVCC Transport
Muxing mode, more info : Muxed in Video #1
Duration : 20 min 0 s
Bit rate mode : Constant
Stream size : 0.00 Byte (0%)
CaptionServiceName : CC3

Text #3
ID : 1-1
Format : EIA-708
Muxing mode : SCTE 128 / DTVCC Transport
Muxing mode, more info : Muxed in Video #1
Duration : 20 min 0 s
Bit rate mode : Constant
Stream size : 0.00 Byte (0%)

WWE Raw  

Text #4
ID : 1-2
Format : EIA-708
Muxing mode : SCTE 128 / DTVCC Transport
Muxing mode, more info : Muxed in Video #1
Duration : 20 min 0 s
Bit rate mode : Constant
Stream size : 0.00 Byte (0%)

WWE Raw Talk

 

https://dx-tv.com/

Leave a Reply

Your email address will not be published. Required fields are marked *

This site uses Akismet to reduce spam. Learn how your comment data is processed.