WWE Raw Talk 2020 09 28 720p Free

Watch WWE Raw Talk 2020 09 28 720p Free DX-TV

 

WWE Raw

 

 WWE RAW

 

WWE Raw Talk 2020 09 28 720p Free

 

 

 

 

Complete name : WWE.Raw.Talk.2020.09.28.720p.WEB.h264-HEEL.mp4
Format : MPEG-4
Format profile : Base Media
Codec ID : isom
File size : 661 MiB
Duration : 22 min 12 s
Overall bit rate : 4 160 kb/s
Writing application : Lavf58

WWE Raw

Video
ID : 1
Format : AVC
Duration : 22 min 12 s
Bit rate : 4 024 kb/s
Width : 1 280 pixels
Height : 720 pixels
Display aspect ratio : 16:9
Frame rate mode : Variable
Frame rate : 30.000 FPS
Color space : YUV
Chroma : 4:2:0
Bit depth : 8 bits
Scan type : Progressive
Bits/(Pixel*Frame) : 0.146
Stream size : 639 MiB (97%)
Codec configuration box : avcC

WWE Raw

Audio
ID : 2
Format : AAC LC
Format/Info : Advanced Audio
Codec ID : mp4a-40-2
Duration : 22 min 12 s
Bit rate mode : Constant
Bit rate : 125 kb/s
Channel(s) : 2 channels
Channel layout : L R
Sampling rate : 48.0 kHz
Frame rate : 46.875 FPS (1024 SPF)
Compression mode : Lossy
Stream size : 19.9 MiB (3%)
Default : Yes
Alternate group : 1

Text #1
ID : 1-CC1
Format : EIA-608
Muxing mode : SCTE 128 / DTVCC Transport
Muxing mode, more info : Muxed in Video #1
Duration : 22 min 12 s
Bit rate mode : Constant
Stream size : 0.00 Byte (0%)
CaptionServiceName : CC1

WWE Raw

Text #2
ID : 1-T1
Format : EIA-608
Muxing mode : SCTE 128 / DTVCC Transport
Muxing mode, more info : Muxed in Video #1
Duration : 22 min 12 s
Bit rate mode : Constant
Stream size : 0.00 Byte (0%)
CaptionServiceName : T1

Text #3
ID : 1-CC3
Format : EIA-608
Muxing mode : SCTE 128 / DTVCC Transport
Muxing mode, more info : Muxed in Video #1
Duration : 22 min 12 s
Bit rate mode : Constant
Stream size : 0.00 Byte (0%)
CaptionServiceName : CC3

WWE Raw

Text #4
ID : 1-1
Format : EIA-708
Muxing mode : SCTE 128 / DTVCC Transport
Muxing mode, more info : Muxed in Video #1
Duration : 22 min 12 s
Bit rate mode : Constant
Stream size : 0.00 Byte (0%)

Text #5
ID : 1-3
Format : EIA-708
Muxing mode : SCTE 128 / DTVCC Transport
Muxing mode, more info : Muxed in Video #1
Duration : 22 min 12 s
Bit rate mode : Constant
Stream size : 0.00 Byte (0%)

WWE Raw

Text #6
ID : 1-4
Format : EIA-708
Muxing mode : SCTE 128 / DTVCC Transport
Muxing mode, more info : Muxed in Video #1
Duration : 22 min 12 s
Bit rate mode : Constant
Stream size : 0.00 Byte (0%)

Text #7
ID : 1-5
Format : EIA-708
Muxing mode : SCTE 128 / DTVCC Transport
Muxing mode, more info : Muxed in Video #1
Duration : 22 min 12 s
Bit rate mode : Constant
Stream size : 0.00 Byte (0%)

WWE Raw

Text #8
ID : 1-6
Format : EIA-708
Muxing mode : SCTE 128 / DTVCC Transport
Muxing mode, more info : Muxed in Video #1
Duration : 22 min 12 s
Bit rate mode : Constant
Stream size : 0.00 Byte (0%)

 

 

 

WWE Raw Talk 2020 09 28 720p Free

 

 

 

 

Watch online

 

 

 

 

 

Server 1

 

 

 

 

WWE Raw

 

 

 

 

Server-2

 

 

 

watch now

 

 

 

 

Server-3

 

 

 

watch now

 

 

 

 

Uploaded By Site DX-TV.com

 

 

 

 

Download Free Links with normal and high Speed [ more 15 hosts ]  

 

 

 

 

http://shrt10.com/1iH9i0W
http://shrt10.com/wi8GxNC
http://shrt10.com/M4wEy246
http://shrt10.com/UhNqKG
http://shrt10.com/6M4NC
http://shrt10.com/kmrdP
http://shrt10.com/JR4iRQ7
http://shrt10.com/XO7W5UH4y
http://shrt10.com/iISQhzxl3
http://shrt10.com/vc2Mu
http://shrt10.com/XBRUYVgD
http://shrt10.com/BeZaNS
http://shrt10.com/RiHj3GR7

 

 

 

Download Links with premium High Speed   

 

 

 

 

 

Keep2Share

 

 

 

nitroflare.com

 

 

 

rapidgator.net

 

 

 

uploaded.net

 

 

 

uploadgig.com

 

 

 

 

 

dx-tv.com

 

urlfree.net

Leave a Reply

Your email address will not be published. Required fields are marked *

This site uses Akismet to reduce spam. Learn how your comment data is processed.