WWE Raw Jan 11 2021 Free Full Show 1080p DX-TV

WWE Raw Jan 11 2021 Free Full Show 1080p DX-TV

WWE Raw Jan 11

 Watch WWE Raw Jan 11

 

Download Links with premium High Speed   

 

 

nitroflare.com

http://shrt10.com/oQouJb
http://shrt10.com/4aWo7L
http://shrt10.com/Ml6c7WB

 

rapidgator.net

http://shrt10.com/yGG01i
http://shrt10.com/xYqRfM
http://shrt10.com/4GSv12ooD

 

 

uploaded.net

http://shrt10.com/ejbNMpNys
http://shrt10.com/bQ8QHql3T

 

 

uploadgig.com

http://shrt10.com/x9DWgQq
http://shrt10.com/mMpVpM0B

 

Watch WWE Raw online

 

Server 1

 

 

 

 

WWE Raw Jan 11

 

 

 

 

Server-2

 

 

 

 

watch now

 

 

Uploaded By Site DX-TV.com

 

 

Complete name : WWE.Monday.Night.Raw.2021.01.11.HDTV.x264-Star.mp4
Format : MPEG-4
Format profile : Base Media
Codec ID : mp42
File size : 1.31 GiB
Duration : 2 h 13 min
Overall bit rate : 1 413 kb/s

WWE Raw Jan 11

Video
ID : 1
Format : AVC
Duration : 2 h 13 min
Bit rate : 1 300 kb/s
Width : 720 pixels
Height : 480 pixels
Display aspect ratio : 16:9
Frame rate mode : Constant
Frame rate : 29.970 FPS
Standard : NTSC
Color space : YUV
Chroma subsampling : 4:2:0
Bit depth : 8 bits
Scan type : Progressive
Bits/(Pixel*Frame) : 0.126
Stream size : 1.20 GiB (91%)
Color range : Limited
Color primaries : BT.709
Transfer characteristics : BT.709
Matrix coefficients : BT.709
Codec configuration box : avc

Audio
ID : 2
Format : AAC LC
Format/Info : Advanced Audio
Codec ID : mp4a-40-2
Duration : 2 h 13 min
Bit rate mode : Constant
Bit rate : 112 kb/s
Channel(s) : 2 channels
Channel layout : L R
Sampling rate : 48.0 kHz
Frame rate : 46.875 FPS
Compression mode : Lossy
Stream size : 106 MiB (8%)
Title : Stereo
Default : Yes

WWE Raw Jan 11

Complete name : WWE.Monday.Night.Raw.2021.01.11.720p.HDTV.x264-Star.mkv
Format : Matroska
Format version : Version 4
File size : 3.82 GiB
Duration : 2 h 13 min
Overall bit rate : 4 109 kb/s

Video
ID : 1
Format : AVC
Duration : 2 h 13 min
Bit rate : 4 000 kb/s
Width : 1 280 pixels
Height : 720 pixels
Display aspect ratio : 16:9
Frame rate mode : Constant
Frame rate : 29.970 (30000/1001) FPS
Color space : YUV
Chroma subsampling : 4:2:0
Bit depth : 8 bits
Scan type : Progressive
Bits/(Pixel*Frame) : 0.145
Stream size : 3.63 GiB (95%)
Forced : No
Color range : Limited
Color primaries : BT.709
Transfer characteristics : BT.709
Matrix coefficients : BT.709

WWE Raw Jan 11

Audio
ID : 2
Format : AC-3
Format/Info : Audio Coding 3
Commercial name : Dolby Digital
Codec ID : A_AC3
Duration : 2 h 13 min
Bit rate mode : Constant
Bit rate : 128 kb/s
Channel(s) : 2 channels
Channel layout : L R
Sampling rate : 48.0 kHz
Frame rate : 31.250 FPS (1536 SPF)
Compression mode : Lossy
Delay relative to video : -5 ms
Stream size : 122 MiB (3%)
Title : Stereo
Service kind : Complete Main
Default : Yes
Forced : No

Complete name : WWE.Monday.Night.Raw.2021.01.11.1080p.HDTV.x264-Star.mkv
Format : Matroska
Format version : Version 4
File size : 7.53 GiB
Duration : 2 h 13 min
Overall bit rate : 8 094 kb/s

WWE Raw Jan 11

Video
ID : 1
Format : AVC
Duration : 2 h 13 min
Bit rate : 8 000 kb/s
Width : 1 920 pixels
Height : 1 080 pixels
Display aspect ratio : 16:9
Frame rate mode : Constant
Frame rate : 29.970 (30000/1001) FPS
Color space : YUV
Chroma subsampling : 4:2:0
Bit depth : 8 bits
Scan type : Progressive
Bits/(Pixel*Frame) : 0.129
Stream size : 7.26 GiB (96%)
Forced : No
Color range : Limited
Color primaries : BT.709
Transfer characteristics : BT.709
Matrix coefficients : BT.709

WWE Raw Jan  

Audio
ID : 2
Format : AC-3
Format/Info : Audio Coding 3
Commercial name : Dolby Digital
Codec ID : A_AC3
Duration : 2 h 13 min
Bit rate mode : Constant
Bit rate : 128 kb/s
Channel(s) : 2 channels
Channel layout : L R
Sampling rate : 48.0 kHz
Frame rate : 31.250 FPS
Compression mode : Lossy
Delay relative to video : -5 ms
Stream size : 122 MiB (2%)
Title : Stereo
Service kind : Complete Main
Default : Yes
Forced : No

 

 

https://dx-tv.com/

Leave a Reply

Your email address will not be published. Required fields are marked *

This site uses Akismet to reduce spam. Learn how your comment data is processed.