WWE RAW Jan 04 2021 Full 1080i HDTV 24GB DX-TV

WWE RAW Jan 04 2021 Full Feed 1080i HDTV 24GB DX-TV

WWE RAW Jan 04 2021

 WWE RAW Jan 04 2021

 

Download Links with premium High Speed   

 

1 Link 24GB

 

rapidgator.net

 

http://shrt10.com/R45R8DQSw       24GB

 

nitroflare.com

 

http://shrt10.com/nq0IT0
http://shrt10.com/M7ZjPAzoY
http://shrt10.com/Ycg7dd
http://shrt10.com/9nSID

 

Watch WWE RAW online

 

Server 1

 

 

 

 

watch now

 

 

 

 

Server-2

 

 

 

 

watch now

 

 

Uploaded By Site DX-TV.com

 

Complete name : WWE.RAW.2021.01.04.1080i.HDTV-DX-TV.ts
Format : MPEG-TS
File size : 24.0 GiB
Duration : 3 h 44 min
Overall bit rate mode : Variable
Overall bit rate : 15.3 Mb/s

WWE RAW Jan 04 2021

Video
ID : 2001 (0x7D1)
Menu ID : 1 (0x1)
Format : AVC
Codec ID : 27
Duration : 3 h 44 min
Bit rate : 14.2 Mb/s
Width : 1 920 pixels
Height : 1 080 pixels
Display aspect ratio : 16:9
Frame rate : 25.000 FPS
Color space : YUV
Chroma subsampling : 4:2:0
Bit depth : 8 bits
Scan type : Interlaced
Scan order : Top Field
Bits/(Pixel*Frame) : 0.274
Stream size : 22.2 GiB (93%)
Color range : Limited
Color primaries : BT.709
Transfer characteristics : BT.709
Matrix coefficients : BT.709

WWE RAW Jan 04 2021

Audio #1
ID : 3101 (0xC1D)
Menu ID : 1 (0x1)
Format : MPEG Audio
version : Version 1
Format profile : Layer 2
Codec ID : 3
Duration : 3 h 44 min
Bit rate mode : Constant
Bit rate : 192 kb/s
Channel(s) : 2 channels
Sampling rate : 48.0 kHz
Frame rate : 41.667 FPS
Compression mode : Lossy
Delay relative to video : -643 ms
Stream size : 308 MiB (1%)
Language : English

Audio #2
ID : 3201 (0xC81)
Menu ID : 1 (0x1)
Format : MPEG Audio
version : Version 1
Format profile : Layer 2
Codec ID : 3
Duration : 3 h 44 min
Bit rate mode : Constant
Bit rate : 192 kb/s
Channel(s) : 2 channels
Sampling rate : 48.0 kHz
Frame rate : 41.667 FPS (1152 SPF)
Compression mode : Lossy
Delay relative to video : -643 ms
Stream size : 308 MiB (1%)
Language : English

WWE RAW Jan 04  

Audio #2
ID : 3201 (0xC81)
Menu ID : 1 (0x1)
Format : MPEG Audio
version : Version 1
Format profile : Layer 2
Codec ID : 3
Duration : 3 h 44 min
Bit rate mode : Constant
Bit rate : 192 kb/s
Channel(s) : 2 channels
Sampling rate : 48.0 kHz
Frame rate : 41.667 FPS (1152 SPF)
Compression mode : Lossy
Delay relative to video : -643 ms
Stream size : 308 MiB (1%)
Language : English

WWE RAW Jan 04  

Menu
ID : 1001 (0x3E9)
Menu ID : 1 (0x1)
Duration : 3 h 44 min
List : 2001 (0x7D1) (AVC) / 3101 (0xC1D) (MPEG Audio, English) / 3201 (0xC81) (MPEG Audio, English)
Language : / English / English
Maximum bit rate : 200000000

 

 

https://dx-tv.com/

Leave a Reply

Your email address will not be published. Required fields are marked *

This site uses Akismet to reduce spam. Learn how your comment data is processed.