WWE Raw Free Online 2021 05 03 720p / 1080p

WWE Raw Free Online 2021 05 03 720p / 1080p DX-TV

WWE Raw Free Online

 WWE Raw Free Online

 

 

 

Download Links with High Speed


 

Dopapk

 

 

Show Links

 

http://shrt10.com/m3ns80O
http://shrt10.com/LfZ0Epu
http://shrt10.com/UKadZyTql

 

[collapse]

 

 

Nitroflare

 

 

Show Links

 

http://shrt10.com/pgb5h
http://shrt10.com/r4NVgqg
http://shrt10.com/NOHgCOT

 

[collapse]

 

 

Rapidgator

 

 

Show Links

 

http://shrt10.com/7On0bzqqY
http://shrt10.com/RRLrXHn
http://shrt10.com/l6O5QVH

 

[collapse]

 

 

Uploaded

 

 

Show Links

 

http://shrt10.com/ZGdza
http://shrt10.com/Lhlmu3Y1

 

[collapse]

 

 

Watch online

 

Server 1

 

 

 

 

WWE Raw Free Online

 

 

 

 

Server-2

 

 

 

 

watch now

 

 

 

|Server-3

 

 

 

 

watch now

 

 

Uploaded By Site DX-TV.com

 

 

Show Info This Show

 

 

Complete name : WWE.Monday.Night.Raw.2021.05.03.1080p.HDTV.x264-Star.mkv
Format : Matroska
Format version : Version 4
File size : 6.90 GiB
Duration : 2 h 1 min
Overall bit rate : 8 128 kb/s

WWE Raw Free Online

Video
ID : 1
Format : AVC
Duration : 2 h 1 min
Bit rate : 8 000 kb/s
Width : 1 920 pixels
Height : 1 080 pixels
Display aspect ratio : 16:9
Frame rate mode : Constant
Frame rate : 29.970 (30000/1001) FPS
Color space : YUV
Chroma subsampling : 4:2:0
Bit depth : 8 bits
Scan type : Progressive
Bits/(Pixel*Frame) : 0.129
Stream size : 6.66 GiB
Forced : No
Color range : Limited
Color primaries : BT.709
Transfer characteristics : BT.709
Matrix coefficients : BT.709

Audio
ID : 2
Format : AC-3
Format/Info : Audio Coding 3
Commercial name : Dolby Digital
Codec ID : A_AC3
Duration : 2 h 1 min
Bit rate mode : Constant
Bit rate : 128 kb/s
Channel(s) : 2 channels
Channel layout : L R
Sampling rate : 48.0 kHz
Frame rate : 31.250 FPS
Compression mode : Lossy
Delay relative to video : -5 ms
Stream size : 111 MiB (2%)
Title : Stereo
Service kind : Complete Main
Default : Yes
Forced : No

WWE Raw Free

Complete name : WWE.Monday.Night.Raw.2021.05.03.720p.HDTV.x264-Star.mkv
Format : Matroska
Format version : Version 4
File size : 3.51 GiB
Duration : 2 h 1 min
Overall bit rate : 4 131 kb/s

Video
ID : 1
Format : AVC
Duration : 2 h 1 min
Bit rate : 4 000 kb/s
Width : 1 280 pixels
Height : 720 pixels
Display aspect ratio : 16:9
Frame rate mode : Constant
Frame rate : 29.970 (30000/1001) FPS
Color space : YUV
Chroma subsampling : 4:2:0
Bit depth : 8 bits
Scan type : Progressive
Bits/(Pixel*Frame) : 0.145
Stream size : 3.33 GiB (95%)
Forced : No
Color range : Limited
Color primaries : BT.709
Transfer characteristics : BT.709
Matrix coefficients : BT.709

WWE Raw Free

Audio
ID : 2
Format : AC-3
Format/Info : Audio Coding 3
Commercial name : Dolby Digital
Codec ID : A_AC3
Duration : 2 h 1 min
Bit rate mode : Constant
Bit rate : 128 kb/s
Channel(s) : 2 channels
Channel layout : L R
Sampling rate : 48.0 kHz
Frame rate : 31.250 FPS
Compression mode : Lossy
Delay relative to video : -5 ms
Stream size : 111 MiB (3%)
Title : Stereo
Service kind : Complete Main
Default : Yes
Forced : No

Complete name : WWE.Monday.Night.Raw.2021.05.03.HDTV.x264-Star.mp4
Format : MPEG-4
Format profile : Base Media
Codec ID : mp42
File size : 1.22 GiB
Duration : 2 h 1 min
Overall bit rate : 1 437 kb/s

WWE Raw Free

Video
ID : 1
Format : AVC
Duration : 2 h 1 min
Bit rate : 1 300 kb/s
Width : 720 pixels
Height : 480 pixels
Display aspect ratio : 16:9
Original display aspect rat : 16:9
Frame rate mode : Constant
Frame rate : 29.970 (30000/1001) FPS
Standard : NTSC
Color space : YUV
Chroma subsampling : 4:2:0
Bit depth : 8 bits
Scan type : Progressive
Bits/(Pixel*Frame) : 0.126
Stream size : 1.10 GiB (91%)
Color range : Limited
Color primaries : BT.709
Transfer characteristics : BT.709
Matrix coefficients : BT.709
Codec configuration box : avcC

Audio
ID : 2
Format : AAC LC
Format/Info : Advanced Audio
Codec ID : mp4a-40-2
Duration : 2 h 1 min
Bit rate mode : Constant
Bit rate : 127 kb/s
Channel(s) : 2 channels
Channel layout : L R
Sampling rate : 48.0 kHz
Frame rate : 46.875 FPS (1024 SPF)
Compression mode : Lossy
Stream size : 111 MiB (9%)
Title : Stereo
Default : Yes
Alternate group : 1

WWE Raw Free

 

[collapse]

 

 

https://dx-tv.com/