WWE Raw Free 1080i 2020 12 28 Feed HDTV H264 DX-TV

WWE Raw Free 1080i 2020 12 28 Feed HDTV H264 17GB DX-TV

WWE Raw Free 1080i

 WWE Raw Free 1080i

 

Download Links with premium High Speed   

 

 

dropapk.to

http://shrt10.com/mAqb0qd
http://shrt10.com/docsV
http://shrt10.com/PHH0OxF

 

 

rapidgator.net

http://shrt10.com/SdhDSp    1 Link 17GB

 

 

nitroflare.com

http://shrt10.com/4vBWQ6
http://shrt10.com/XyyX0qNd
http://shrt10.com/Sp1CxQ

 

 

uploadgig.com

http://shrt10.com/eTYceV
http://shrt10.com/1zAs8
http://shrt10.com/TeYBuxtg2

 

Please Note::

This video has been included WWE Raw Talk after show

 

Watch online

 

Server 1

 

 

 

 

WWE Raw Free 1080i

 

 

 

 

Server-2

 

 

 

 

watch now

 

 

Uploaded By Site DX-TV.com

 

 

 

Complete name : WWE.Monday.Night.Raw.2020.12.28.1080i.HDTV.H264 DX-TV.mp4
Format : MPEG-4
Format profile : Base Media
Codec ID : isom
File size : 17.2 GiB
Duration : 2 h 41 min
Overall bit rate : 15.3 Mb/s
Writing application : Lavf58.25.100

WWE Raw Free 1080i

Video
ID : 1
Format : AVC
Format/Info : Advanced Video
Duration : 2 h 41 min
Bit rate : 15.0 Mb/s
Width : 1 920 pixels
Height : 1 080 pixels
Display aspect ratio : 16:9
Frame rate mode : Constant
Frame rate : 50.000 FPS
Color space : YUV
Chroma subsampling : 4:2:0
Bit depth : 8 bits
Scan type : Progressive
Bits/(Pixel*Frame) : 0.145
Stream size : 16.8 GiB (98%)
Writing library : x264 core 142
Codec box : avcC

WWE Raw Free 1080i

Audio
ID : 2
Format : AC-3
Format/Info : Audio Coding 3
Commercial name : Dolby Digital
Codec ID : ac-3
Duration : 2 h 41 min
Bit rate mode : Constant
Bit rate : 320 kb/s
Channel(s) : 6 channels
Channel layout : L R C LFE Ls Rs
Sampling rate : 48.0 kHz
Frame rate : 31.250 FPS (1536 SPF)
Compression mode : Lossy
Stream size : 369 MiB (2%)
Language : English
Service kind : Complete Main
Default : Yes
Alternate group : 1

WWE Raw Free  

Audio
ID : 3
Format : AC-3
Format/Info : Audio Coding 3
Commercial name : Dolby Digital
Codec ID : ac-3
Duration : 2 h 41 min
Bit rate mode : Constant
Bit rate : 320 kb/s
Channel(s) : 6 channels
Channel layout : L R C LFE Ls Rs
Sampling rate : 48.0 kHz
Frame rate : 31.250 FPS (1536 SPF)
Compression mode : Lossy
Stream size : 369 MiB (2%)
Language : English
Service kind : Complete Main
Default : Yes
Alternate group : 1

WWE Raw Free  

Audio
ID : 2
Format : AC-3
Format/Info : Audio Coding 3
Commercial name : Dolby Digital
Codec ID : ac-3
Duration : 2 h 41 min
Bit rate mode : Constant
Bit rate : 320 kb/s
Channel(s) : 6 channels
Channel layout : L R C LFE Ls Rs
Sampling rate : 48.0 kHz
Frame rate : 31.250 FPS (1536 SPF)
Compression mode : Lossy
Stream size : 369 MiB (2%)
Language : English
Service kind : Complete Main
Default : Yes
Alternate group : 1

https://dx-tv.com/

Leave a Reply

Your email address will not be published. Required fields are marked *

This site uses Akismet to reduce spam. Learn how your comment data is processed.