WWE RAW 720p 28 09 2020 Full Show Free

Watch WWE RAW 720p 28 09 2020 Full Show Free HDTV NWCHD DX-TV

 

WWE RAW 720p

 

 WWE RAW 720p
 


 

 

WWE RAW 720p 28 09 2020 Full Show Free

 

Seth Rollins revealed Aalyah Mysterio and Murphy’s secret DMs

After months of torment by Seth Rollins, fractures began to show in the Mysterio family’s close bonds. Rey Mysterio, his son Dominik, daughter Aalyah and wife Angie appeared on Jerry Lawler’s “King’s Court” to update the WWE Universe on where they stand.

Aalyah said that her encounter with Murphy last Monday was not welcomed and that she questioned why anyone would willingly associate themselves with Rollins.

WWE RAW 720p

However, Rollins had evidence that all was not as it seemed. The Monday Night Messiah revealed private DMs between Aalyah and his disciple, including Aalyah wishing Murphy a happy birthday. The daughter of Rey Mysterio then insisted that Murphy wasn’t like Rollins, to the dismay of her family, then stormed off. Meanwhile, a furious Murphy confronted The Monday Night Messiah, demanding to know why Rollins went through his phone. But before Murphy could get any answers, Dominik flew into the scene, attacking Murphy before being pulled off by WWE officials.

WWE RAW 720p

Mandy Rose & Dana Brooke def. Natalya & Lana

Natalya & Lana began their night demanding that Nia Jax & Shayna Baszler be stripped of the WWE Women’s Tag Team Titles and that they be crowned champions. 

WWE official Adam Pearce arrived to let “The BOAT” and The Ravishing Russian know that would not be happening, but the two could prove themselves against the newest tag team on Raw – Mandy Rose & Dana Brooke.

Lana welcomed the newcomers to Raw with a slap to The Golden Goddess’ face, which only infuriated Rose, who dropped The Ravishing Russian with a devastating knee strike to pick up the win.

 

WWE RAW 720p

Complete name : WWE.Monday.Night.Raw.2020.09.28.720p.HDTV.x264-NWCHD.mp4
Format : MPEG-4
Format profile : Base Media
Codec ID : isom
File size : 4.10 GiB
Duration : 2 h 6 min
Overall bit rate : 4 654 kb/s
Writing application : Lavf5 

WWE RAW 720p

Video
ID : 1
Format : AVC
Duration : 2 h 6 min
Bit rate : 4 500 kb/s
Width : 1 280 pixels
Height : 720 pixels
Display aspect ratio : 16:9
Frame rate mode : Variable
 rate : 29.970 (30000/1001) FPS
Color space : YUV
Chroma : 4:2:0
Bit depth : 8 bits
Scan type : Progressive
Bits/(Pixel*Frame) : 0.163
Stream size : 3.92 GiB (96%)
Color primaries : BT.709
Transfer characteristics : BT.709
Matrix coefficients : BT.709
Codec configuration box : avcC

WWE RAW 720p

Audio
ID : 2
Format : AAC LC
Format/Info : Advanced Audio
Codec ID : mp4a-40-2
Duration : 2 h 6 min
Bit rate mode : Constant
Bit rate : 192 kb/s
Channel(s) : 2 channels
Channel layout : L R
Sampling rate : 48.0 kHz
Frame rate : 46.875 FPS (1024 SPF)
Compression mode : Lossy
Stream size : 173 MiB (4%)
Title : Stereo
Language : English
Default : Yes
Alternate group : 1

 

 

 

WWE RAW 720p 28 09 2020 Full Show Free

 

 

 

 

Watch online

 

 

 

 

 

Server 1

 

 

 

 

WWE RAW 720p

 

 

 

 

Server-2

 

 

 

watch now

 

 

 

 

Server-3

 

 

 

WWE RAW 720p

 

 

 

 

Uploaded By Site DX-TV.com

 

 

 

 

Download Free Links with normal and high Speed [ more 15 hosts ]  

 

 

 

http://shrt10.com/dMCux1k
http://shrt10.com/VJXrAr0r7
http://shrt10.com/MhfjMifpp
http://shrt10.com/nN584b
http://shrt10.com/XNZHM
http://shrt10.com/ESIKN
http://shrt10.com/0pCkYaKoC
http://shrt10.com/LeKqenVG
http://shrt10.com/4BleoqGO

 

 

 

 

Download Links with premium High Speed   

 

 

 

 

 

Keep2Share

 

 

 

nitroflare.com

 

 

 

rapidgator.net

 

 

 

uploaded.net

 

 

 

uploadgig.com

 

 

 

 

 

dx-tv.com

 

urlfree.net

Leave a Reply

Your email address will not be published. Required fields are marked *

This site uses Akismet to reduce spam. Learn how your comment data is processed.