WWE RAW 720p 2020 01 13 Star

Watch WWE RAW 720p 2020 01 13 Star DX-TV

 

 

wwe raw

 

 

 

 

dx-tv.com

 

 

 

 

WWE RAW 720p 2020 01 13 Star

 

 

 

 

Complete name : WWE.RAW.2020.01.13.720p.HDTV.x264-Star.mkv
Format : Matroska
Format version : Version 4
File size : 5.23 GiB
Duration : 2 h 11 min
Overall bit rate : 5 680 kb/s
Writing library : Lavf58.29.100
ErrorDetectionType : Per level 1

Video
ID : 1
Format : AVC
Codec ID : V_MPEG4/ISO/AVC
Duration : 2 h 11 min
Bit rate : 5 500 kb/s
Width : 1 280 pixels
Height : 720 pixels
Display aspect ratio : 16:9
Frame rate mode : Constant
Frame rate : 25.000 FPS
Color space : YUV
Chroma subsampling : 4:2:0
Bit depth : 8 bits
Scan type : Progressive
Bits/(Pixel*Frame) : 0.239
Stream size : 4.95 GiB (95%)
Color range : Limited
Color primaries : BT.709
Transfer characteristics : BT.709
Matrix coefficients : BT.709

Audio
ID : 2
Format : AC-3
Codec ID : A_AC3
Duration : 2 h 11 min
Bit rate mode : Constant
Bit rate : 192 kb/s
Channel(s) : 2 channels
Channel layout : L R
Sampling rate : 48.0 kHz
Frame rate : 31.250 FPS (1536 SPF)
Compression mode : Lossy
Delay relative to video : -5 ms
Stream size : 181 MiB (3%)
Title : Stereo
Language : any
Service kind : Complete Main
Default : Yes
Forced : No

 

 

 

 

 

 

Watch online

 

 

Server 1

 

 

watch now

 

 

WWE RAW 720p 2020 01 13 Star

 

 

 

Uploaded By Site DX-TV.com

 

 

 

 

 

Download VIP Members FTP server Download 1 Link and Free Links 

 

 

 

Limited Time will be removed after 90 days if you need available again pm email admin

 

This section is only available to registered users.

 

1fichier.com 

https://1fichier.com/?q5alnkyo982q0c1ktg62

https://1fichier.com/?2xjk24rcomqif2er961n

 

dailyuploads.net

 

 

dl.free.fr

 

http://dl.free.fr/i9iK3upbm

http://dl.free.fr/kwjOrw9x5

 

earn4files.com

 

https://earn4files.com/jzcsv0lry6wt

https://earn4files.com/32hbueeioem8

 

  

Download with premium account Links 

 

 

nitroflare.com

 

https://shrt10.com/qFMfNX

https://shrt10.com/UNDBX

 

rapidgator.net

 

https://shrt10.com/vjUn

https://shrt10.com/I46cn

 

uploaded.net

 

http://ul.to/gaoceoiy

http://ul.to/g7wm8ksh