WWE RAW 29 06 2020 720p Free Full Show Online

Watch WWE RAW 29 06 2020 720p Free Full Show Online DX-TV

 

WWE RAW 29 06

 WWE Raw

WWE RAW 29 06 2020 720p Free Full Show Online

 

 

 

Complete name : WWE RAW 06 29 2020 720p HDTV H264 DX-TV.COM.mp4
Format : MPEG-4
Format profile : Base Media
Codec ID : isom
File size : 3.27 GiB
Duration : 2 h 8 min
WWE RAW rate mode : Constant
Overall bit rate : 3 631 kb/s
Law rating : TV-PG (V)
Writing application : Lavf55.33.100

Video
ID : 2
Format : AVC
Format/Info : Advanced Video Codec
profile : [email protected]
Format settings : CABAC / 2 Ref Frames
WWE RAW : Yes
Format settings, Reference : 2 frames
Codec ID : avc1
Codec ID/Info : WWE RAW
Duration : 2 h 8 min
Bit rate mode : Constant
Bit rate : 3 500 kb/s
Width : 1 280 pixels
Height : 720 pixels
Display aspect ratio : 16:9
Frame rate : 29.970 (30000/1001) FPS
Standard : Component
Color space : YUV
Chroma subsampling : 4:2:0
Bit depth : 8 bits
Scan type : Progressive
Bits/(Pixel*Frame) : 0.127
Stream size : 3.15 GiB (96%)
Color range : Limited
Color primaries : BT.709
Transfer WWE RAW : BT.709
Matrix coefficients : BT.709
Codec configuration box : avcC

 RAW 29 06 2020 720p Free Full Show Online

Audio
ID : 1
Format : AAC LC
Format/Info : WWE RAW Complexity
Codec ID : mp4a-40-2
Duration : 2 h 8 min
Bit rate mode : Constant
Bit rate : 125 kb/s
Channel(s) : 2 channels
Channel layout : L R
Sampling rate : 48.0 kHz
Frame rate : 46.875 FPS (1024 SPF)
WWE RAW mode : Lossy
Stream size : 116 MiB (3%)
Default : Yes
Alternate group : 1

Text #1
ID : 2-CC1
Format : EIA-608
Muxing mode : WWE RAW/ DTVCC Transport
Muxing mode, more info : Muxed in Video #1
Duration : 2 h 8 min
Bit rate mode : Constant
Stream size : 0.00 Byte (0%)
WWE RAW Name : CC1

WWE RAW 29 06 2020 720p Free Full Show Online

Text #2
ID : 2-1
Format : EIA-708
Muxing mode : WWE RAW / DTVCC Transport
Muxing mode, more info : Muxed in Video #1
Duration : 2 h 8 min
Bit rate mode : Constant
Stream size : 0.00 Byte (0%)

 

 

WWE RAW 29 06 2020 720p Free Full Show Online

 

 

 

Watch online

 

 

Server 1

 

 

 

 

watch now

 

 

 

Server-2

 

 

 

WWE RAW

 

 

 

Uploaded By Site DX-TV.com

 

 

 

Download with premium account Links 

 

 

Keep2Share

 

 

nitroflare.com

 

 

rapidgator.net

 

 

uploadgig.com

 

 

 

dx-tv.com

 

urlfree.net

 139 total views,  1 views today

Leave a Reply

Your email address will not be published. Required fields are marked *

This site uses Akismet to reduce spam. Learn how your comment data is processed.

%d bloggers like this:
Optimized with PageSpeed Ninja