WWE RAW 28 09 2020 Full Show Online

Watch WWE RAW 28 09 2020 Full Show Online HDTV NWCHD DX-TV

 

 

WWE RAW

 

 WWE RAW
 


 

 

WWE RAW 28 09 2020 Full Show Online

 

Keith Lee def. Andrade

As his former manager Zelina Vega was helped to the backstage area, still feeling the effects of the Asuka Lock, Andrade gloated, declaring that both Vega and Angel Garza were weak links, holding him back from achieving his full potential, before daring anyone to face him. Andrade’s challenge was quickly answered by Keith Lee. Andrade temporarily stunned The Limitless One, but Lee recovered and put Andrade down for the three-count in decisive fashion after a thunderous Spirit Bomb.

WWE RAW

R-Truth, Drew Gulak & Akira Tozawa traded the 24/7 Title

While enjoying a meal backstage, R-Truth was interrupted by a ninja bearing a note from Akira Tozawa, who was last seen having an unfortunate run-in with a shark. The note looked back fondly on Truth and Tozawa’s encounters and ended with the ninja bequeathing Tozawa’s black belt to Truth. As the 24/7 Champion lamented his rival’s disappearance, Tozawa emerged from under a nearby table with a referee, to roll Truth up and capture the 24/7 Title. Tozawa’s reign was short-lived, as the ninja quickly pinned Tozawa, revealing himself as Drew Gulak. The Philadelphia Stretcher’s reign was also a short one, as Truth walloped him with a briefcase to start his 41st reign as champion and run off.

WWE RAW

Complete name : WWE.Monday.Night.Raw.2020.09.28.HDTV.x264-NWCHD.mp4
Format : MPEG-4
Format profile : Base Media
Codec ID : isom
File size : 1.40 GiB
Duration : 2 h 6 min
Overall bit rate : 1 583 kb/s
Writing application : Lavf 

WWE RAW

Video
ID : 1
Format : AVC
Duration : 2 h 6 min
Bit rate : 1 400 kb/s
Width : 704 pixels
Height : 400 pixels
Display aspect ratio : 16:9
Original rat : 16:9
Frame rate mode : Variable
 rate : 29.970 (30000/1001) FPS
Color space : YUV
Chroma subsampling : 4:2:0
Bit depth : 8 bits
Scan type : Progressive
Bits/(Pixel*Frame) : 0.166
Stream size : 1.22 GiB (87%)
Color primaries : BT.709
Transfer characteristics : BT.709
Matrix coefficients : BT.709
Codec configuration box : avcC

WWE RAW

Audio
ID : 2
Format : AAC LC
Format/Info : Advanced Audio
Codec ID : mp4a-40-2
Duration : 2 h 6 min
Bit rate mode : Constant
Bit rate : 192 kb/s
Channel(s) : 2 channels
Channel layout : L R
Sampling rate : 48.0 kHz
Frame rate : 46.875 FPS (1024 SPF)
Compression mode : Lossy
Stream size : 173 MiB (12%)
Title : Stereo
Language : English
Default : Yes
Alternate group : 1

 

 

 

WWE RAW 28 09 2020 Full Show Online

 

 

 

 

Watch online

 

 

 

Server 1

 

 

 

 

WWE RAW

 

 

 

 

Server-2

 

 

 

watch now

 

 

 

 

Server-3

 

 

 

WWE RAW

 

 

 

 

Uploaded By Site DX-TV.com

 

 

 

 

Download Free Links with normal and high Speed [ more 15 hosts ]  

 

 

 

 

http://shrt10.com/UXY8HbC
http://shrt10.com/bHXUmxg5j
http://shrt10.com/pRH0zD
http://shrt10.com/zB8XfmEo6
http://shrt10.com/bE1AD6l1
http://shrt10.com/lIQq402f
http://shrt10.com/jIoW7x1
http://shrt10.com/LnpI1F9
http://shrt10.com/R3LLRW
http://shrt10.com/JwZHLitAx
http://shrt10.com/KEAYs
http://shrt10.com/uKkFgo9
http://shrt10.com/jdWrwSo

 

 

 

Download Links with premium High Speed   

 

 

 

 

 

Keep2Share

 

 

 

nitroflare.com

 

 

 

rapidgator.net

 

 

 

uploaded.net

 

 

 

uploadgig.com

 

 

 

 

 

dx-tv.com

 

urlfree.net

Leave a Reply

Your email address will not be published. Required fields are marked *

This site uses Akismet to reduce spam. Learn how your comment data is processed.