WWE Raw 2021 09 13 Full Show Replay

WWE Raw 2021 09 13 720p/ 1080p Full Show Online Free Replay DX-TV

WWE Raw

 WWE Raw

 

 

 

Download Links with premium High Speed
 

 


 

Dopapk

 

 

Show Links

 

 

https://shrt10.com/ruy7VbmtE

 

 

 

 

 

Nitroflare

 

 

Show Links

 

 

https://shrt10.com/wNBLX
https://shrt10.com/Dk41Jc
https://shrt10.com/NY44yZEs

 

 

 

 

Rapidgator

 

 

Show Links

 

 

https://shrt10.com/YnchCW
https://shrt10.com/CPiOTOcm
https://shrt10.com/qZmuJs

 

 

 

 

 

Uploaded
 

 

 

Show Links

 

 

https://shrt10.com/PEIwP0a
https://shrt10.com/75f56ts

 

 

 

 

 

 

 

Watch online

 

Server 1

 

 

 

 

watch now

 

 

 

 

Server-2

 

 

 

 

WWE Raw

 

 

 

|Server-3

 

 

 

 

watch now

 

 

Uploaded By Site DX-TV.com

 

 

Open Info Show

 

 

Complete name : WWE.Monday.Night.Raw.2021.09.13.HDTV.x264-NWCHD.mp4
Format : MPEG-4
Format profile : Base Media
Codec ID : isom
File size : 1.44 GiB
Duration : 2 h 8 min
Overall bit rate : 1 605 kb/s

Video
ID : 1
Format : AVC
Duration : 2 h 8 min
Bit rate : 1 400 kb/s
Maximum bit rate : 1 416 kb/s
Width : 704 pixels
Height : 400 pixels
Display aspect ratio : 16:9
Frame rate mode : Variable
Frame rate : 29.970 (30000/1001) FPS
Minimum frame rate : 19.947 FPS
Maximum frame rate : 29.970 FPS
Color space : YUV
Chroma subsampling : 4:2:0
Bit depth : 8 bits
Scan type : Progressive
Bits/(Pixel*Frame) : 0.166
Stream size : 1.26 GiB (88%)
Color primaries : BT.709
Transfer characteristics : BT.709
Matrix coefficients : BT.709
Codec configuration box : avc

WWE Raw

Audio
ID : 2
Format : AAC LC
Format/Info : Advanced Audio
Codec ID : mp4a-40-2
Duration : 2 h 8 min
Bit rate mode : Constant
Bit rate : 192 kb/s
Channel(s) : 2 channels
Channel layout : L R
Sampling rate : 48.0 kHz
Frame rate : 46.875 FPS (1024 SPF)
Compression mode : Lossy
Stream size : 176 MiB (12%)
Title : Stereo
Language : English
Default : Yes
Alternate group : 1

Complete name : WWE.Monday.Night.Raw.2021.09.13.1080p.HDTV.x264-NWCHD.mp4
Format : MPEG-4
Format profile : Base Media
Codec ID : isom
File size : 7.36 GiB
Duration : 2 h 8 min
Overall bit rate : 8 225 kb/s

WWE Raw

Video
ID : 1
Format : AVC
Duration : 2 h 8 min
Bit rate : 8 064 kb/s
Width : 1 920 pixels
Height : 1 080 pixels
Display aspect ratio : 16:9
Frame rate mode : Variable
Frame rate : 29.970 (30000/1001) FPS
Minimum frame rate : 19.947 FPS
Maximum frame rate : 29.970 FPS
Color space : YUV
Chroma subsampling : 4:2:0
Bit depth : 8 bits
Scan type : Progressive
Bits/(Pixel*Frame) : 0.130
Stream size : 7.18 GiB (98%)
Color primaries : BT.709
Transfer characteristics : BT.709
Matrix coefficients : BT.709
Codec configuration box : avc

WWE Raw

Audio
ID : 2
Format : AAC LC
Format/Info : Advanced Audio
Codec ID : mp4a-40-2
Duration : 2 h 8 min
Bit rate mode : Constant
Bit rate : 192 kb/s
Channel(s) : 2 channels
Channel layout : L R
Sampling rate : 48.0 kHz
Frame rate : 46.875 FPS (1024 SPF)
Compression mode : Lossy
Stream size : 176 MiB (2%)
Title : Stereo
Language : English
Default : Yes
Alternate group : 1

Complete name : WWE.Monday.Night.Raw.2021.09.13.720p.HDTV.x264-NWCHD.mp4
Format : MPEG-4
Format profile : Base Media
Codec ID : isom
File size : 4.22 GiB
Duration : 2 h 8 min
Overall bit rate : 4 716 kb/s

Video
ID : 1
Format : AVC
Duration : 2 h 8 min
Bit rate : 4 542 kb/s
Width : 1 280 pixels
Height : 720 pixels
Display aspect ratio : 16:9
Frame rate mode : Variable
Frame rate : 29.970 (30000/1001) FPS
Minimum frame rate : 19.947 FPS
Maximum frame rate : 29.970 FPS
Color space : YUV
Chroma subsampling : 4:2:0
Bit depth : 8 bits
Scan type : Progressive
Bits/(Pixel*Frame) : 0.164
Stream size : 4.04 GiB (96%)
Color primaries : BT.709
Transfer characteristics : BT.709
Matrix coefficients : BT.709
Codec configuration box : avc

WWE Raw

Audio
ID : 2
Format : AAC LC
Format/Info : Advanced Audio
Codec ID : mp4a-40-2
Duration : 2 h 8 min
Bit rate mode : Constant
Bit rate : 192 kb/s
Channel(s) : 2 channels
Channel layout : L R
Sampling rate : 48.0 kHz
Frame rate : 46.875 FPS (1024 SPF)
Compression mode : Lossy
Stream size : 176 MiB (4%)
Title : Stereo
Language : English
Default : Yes
Alternate group : 1

 

 

https://dx-tv.com/

 

 

 

 

 

Leave a Reply

Your email address will not be published. Required fields are marked *

This site uses Akismet to reduce spam. Learn how your comment data is processed.