WWE Raw 2021 08 30 1080p Online Free Replay

WWE Raw 2021 08 30 720p/ 1080p Online Free Replay DX-TV

WWE Raw 2021 08 30

 WWE Raw 2021 08 30

 

 

 

Download Links with premium High Speed

Dopapk

 

 

Show Links

 

 

https://shrt10.com/bwT1QFL6D
https://shrt10.com/A9iIC

https://shrt10.com/nNddZvzU

[collapse]

 

 

 

 

Nitroflare

 

 

Show Links

 

 

https://shrt10.com/HW9PzLv
https://shrt10.com/ubdhdLI
https://shrt10.com/SsCUiob

 

 

[collapse]

 

 

Rapidgator

 

 

Show Links

 

 

https://shrt10.com/aKpMxmGF
https://shrt10.com/AP7T6b
https://shrt10.com/8cO30v3

 

 

[collapse]

 

 

 

Uploaded
 

Show Links

 

 

 

 

https://shrt10.com/3S2bdXS4j
https://shrt10.com/7DOEv

 

 

[collapse]

 

 

 

 

 

Watch online

 

Server 1

 

 

 

 

WWE Raw 2021 08 30

 

 

 

 

Server-2

 

 

 

 

watch now

 

 

 

|Server-3

 

 

 

 

watch now

 

 

Uploaded By Site DX-TV.com

 

 

Show Info This Show

WWE Raw 2021 08 30

 

Complete name : WWE.Monday.Night.Raw.2021.08.30.HDTV.x264-NWCHD.mp4
Format : MPEG-4
Format profile : Base Media
Codec ID : isom
File size : 1.43 GiB
Duration : 2 h 7 min
Overall bit rate : 1 601 kb/s

Video
ID : 1
Format : AVC
Format/Info : Advanced Video
Duration : 2 h 7 min
Bit rate : 1 400 kb/s
Maximum bit rate : 1 428 kb/s
Width : 704 pixels
Height : 400 pixels
Display aspect ratio : 16:9
Frame rate mode : Variable
Frame rate : 29.970 (30000/1001) FPS
Minimum frame rate : 19.255 FPS
Maximum frame rate : 29.970 FPS
Color space : YUV
Chroma subsampling : 4:2:0
Bit depth : 8 bits
Scan type : Progressive
Bits/(Pixel*Frame) : 0.166
Stream size : 1.25 GiB (87%)
Color primaries : BT.709
Transfer characteristics : BT.709
Matrix coefficients : BT.709
Codec configuration box : av

WWE Raw 2021 08 30

Audio
ID : 2
Format : AAC LC
Format/Info : Advanced Audio
Codec ID : mp4a-40-2
Duration : 2 h 7 min
Bit rate mode : Constant
Bit rate : 192 kb/s
Channel(s) : 2 channels
Channel layout : L R
Sampling rate : 48.0 kHz
Frame rate : 46.875 FPS (1024 SPF)
Compression mode : Lossy
Stream size : 176 MiB (12%)
Title : Stereo
Language : English
Default : Yes
Alternate group : 1

Complete name :WWE.Monday.Night.Raw.2021.08.30.1080p.HDTV.x264-NWCHD.mp4
Format : MPEG-4
Format profile : Base Media / Version 2
Codec ID : mp42
File size : 7.33 GiB
Duration : 2 h 7 min
Overall bit rate mode : Variable
Overall bit rate : 8 203 kb/s

WWE Raw 2021 08 30

Video
ID : 1
Format : AVC
Duration : 2 h 7 min
Bit rate : 8 000 kb/s
Width : 1 920 pixels
Height : 1 080 pixels
Display aspect ratio : 16:9
Frame rate mode : Constant
Frame rate : 29.970 (30000/1001) FPS
Color space : YUV
Chroma subsampling : 4:2:0
Bit depth : 8 bits
Scan type : Progressive
Bits/(Pixel*Frame) : 0.129
Stream size : 7.15 GiB (98%)
Color range : Limited
Color primaries : BT.709
Transfer characteristics : BT.709
Matrix coefficients : BT.709
Codec configuration box : avcC

Audio
ID : 2
Format : AAC LC
Format/Info : Advanced Audio
Codec ID : mp4a-40-2
Duration : 2 h 7 min
Bit rate mode : Variable
Bit rate : 192 kb/s
Channel(s) : 2 channels
Channel layout : L R
Sampling rate : 48.0 kHz
Frame rate : 46.875 FPS (1024 SPF)
Compression mode : Lossy
Stream size : 176 MiB (2%)
Title : Stereo / Stereo
Language : English
Default : Yes
Alternate group : 1

Complete name : WWE.Monday.Night.Raw.2021.08.30.720p.HDTV.x264-NWCHD.mp4
Format : MPEG-4
Format profile : Base Media
Codec ID : isom
File size : 4.21 GiB
Duration : 2 h 7 min
Overall bit rate : 4 708 kb/s

Video
ID : 1
Format : AVC
Format/Info : Advanced Video
Duration : 2 h 7 min
Bit rate : 4 500 kb/s
Maximum bit rate : 4 586 kb/s
Width : 1 280 pixels
Height : 720 pixels
Display aspect ratio : 16:9
Frame rate mode : Variable
Frame rate : 29.970 (30000/1001) FPS
Minimum frame rate : 19.255 FPS
Maximum frame rate : 29.970 FPS
Color space : YUV
Chroma subsampling : 4:2:0
Bit depth : 8 bits
Scan type : Progressive
Bits/(Pixel*Frame) : 0.163
Stream size : 4.03 GiB (96%)
Color primaries : BT.709
Transfer characteristics : BT.709
Matrix coefficients : BT.709
Codec configuration box : avcC

WWE Raw 2021 08 30

Audio
ID : 2
Format : AAC LC
Format/Info : Advanced Audio
Codec ID : mp4a-40-2
Duration : 2 h 7 min
Bit rate mode : Constant
Bit rate : 192 kb/s
Channel(s) : 2 channels
Channel layout : L R
Sampling rate : 48.0 kHz
Frame rate : 46.875 FPS (1024 SPF)
Compression mode : Lossy
Stream size : 176 MiB (4%)
Title : Stereo
Language : English
Default : Yes
Alternate group : 1

WWE Raw 2021 08 30

Complete name : WWE.Monday.Night.Raw.2021.08.30.720p.HDTV.x264-NWCHD.mp4
Format : MPEG-4
Format profile : Base Media
Codec ID : isom
File size : 4.21 GiB
Duration : 2 h 7 min
Overall bit rate : 4 708 kb/s

Video
ID : 1
Format : AVC
Format/Info : Advanced Video
Duration : 2 h 7 min
Bit rate : 4 500 kb/s
Maximum bit rate : 4 586 kb/s
Width : 1 280 pixels
Height : 720 pixels
Display aspect ratio : 16:9
Frame rate mode : Variable
Frame rate : 29.970 (30000/1001) FPS
Minimum frame rate : 19.255 FPS
Maximum frame rate : 29.970 FPS
Color space : YUV
Chroma subsampling : 4:2:0
Bit depth : 8 bits
Scan type : Progressive
Bits/(Pixel*Frame) : 0.163
Stream size : 4.03 GiB (96%)
Color primaries : BT.709
Transfer characteristics : BT.709
Matrix coefficients : BT.709
Codec configuration box : avcC

WWE Raw 2021 08 30

Audio
ID : 2
Format : AAC LC
Format/Info : Advanced Audio
Codec ID : mp4a-40-2
Duration : 2 h 7 min
Bit rate mode : Constant
Bit rate : 192 kb/s
Channel(s) : 2 channels
Channel layout : L R
Sampling rate : 48.0 kHz
Frame rate : 46.875 FPS (1024 SPF)
Compression mode : Lossy
Stream size : 176 MiB (4%)
Title : Stereo
Language : English
Default : Yes
Alternate group : 1

WWE Raw 2021 08 30

Complete name : WWE.Monday.Night.Raw.2021.08.30.720p.HDTV.x264-NWCHD.mp4
Format : MPEG-4
Format profile : Base Media
Codec ID : isom
File size : 4.21 GiB
Duration : 2 h 7 min
Overall bit rate : 4 708 kb/s

Video
ID : 1
Format : AVC
Format/Info : Advanced Video
Duration : 2 h 7 min
Bit rate : 4 500 kb/s
Maximum bit rate : 4 586 kb/s
Width : 1 280 pixels
Height : 720 pixels
Display aspect ratio : 16:9
Frame rate mode : Variable
Frame rate : 29.970 (30000/1001) FPS
Minimum frame rate : 19.255 FPS
Maximum frame rate : 29.970 FPS
Color space : YUV
Chroma subsampling : 4:2:0
Bit depth : 8 bits
Scan type : Progressive
Bits/(Pixel*Frame) : 0.163
Stream size : 4.03 GiB (96%)
Color primaries : BT.709
Transfer characteristics : BT.709
Matrix coefficients : BT.709
Codec configuration box : avcC

WWE Raw 2021 08 30

Audio
ID : 2
Format : AAC LC
Format/Info : Advanced Audio
Codec ID : mp4a-40-2
Duration : 2 h 7 min
Bit rate mode : Constant
Bit rate : 192 kb/s
Channel(s) : 2 channels
Channel layout : L R
Sampling rate : 48.0 kHz
Frame rate : 46.875 FPS (1024 SPF)
Compression mode : Lossy
Stream size : 176 MiB (4%)
Title : Stereo
Language : English
Default : Yes
Alternate group : 1

WWE Raw 2021 08 30

Complete name : WWE.Monday.Night.Raw.2021.08.30.720p.HDTV.x264-NWCHD.mp4
Format : MPEG-4
Format profile : Base Media
Codec ID : isom
File size : 4.21 GiB
Duration : 2 h 7 min
Overall bit rate : 4 708 kb/s

Video
ID : 1
Format : AVC
Format/Info : Advanced Video
Duration : 2 h 7 min
Bit rate : 4 500 kb/s
Maximum bit rate : 4 586 kb/s
Width : 1 280 pixels
Height : 720 pixels
Display aspect ratio : 16:9
Frame rate mode : Variable
Frame rate : 29.970 (30000/1001) FPS
Minimum frame rate : 19.255 FPS
Maximum frame rate : 29.970 FPS
Color space : YUV
Chroma subsampling : 4:2:0
Bit depth : 8 bits
Scan type : Progressive
Bits/(Pixel*Frame) : 0.163
Stream size : 4.03 GiB (96%)
Color primaries : BT.709
Transfer characteristics : BT.709
Matrix coefficients : BT.709
Codec configuration box : avcC

WWE Raw 2021 08 30

Audio
ID : 2
Format : AAC LC
Format/Info : Advanced Audio
Codec ID : mp4a-40-2
Duration : 2 h 7 min
Bit rate mode : Constant
Bit rate : 192 kb/s
Channel(s) : 2 channels
Channel layout : L R
Sampling rate : 48.0 kHz
Frame rate : 46.875 FPS (1024 SPF)
Compression mode : Lossy
Stream size : 176 MiB (4%)
Title : Stereo
Language : English
Default : Yes
Alternate group : 1

WWE Raw 2021 08 30

Complete name : WWE.Monday.Night.Raw.2021.08.30.720p.HDTV.x264-NWCHD.mp4
Format : MPEG-4
Format profile : Base Media
Codec ID : isom
File size : 4.21 GiB
Duration : 2 h 7 min
Overall bit rate : 4 708 kb/s

Video
ID : 1
Format : AVC
Format/Info : Advanced Video
Duration : 2 h 7 min
Bit rate : 4 500 kb/s
Maximum bit rate : 4 586 kb/s
Width : 1 280 pixels
Height : 720 pixels
Display aspect ratio : 16:9
Frame rate mode : Variable
Frame rate : 29.970 (30000/1001) FPS
Minimum frame rate : 19.255 FPS
Maximum frame rate : 29.970 FPS
Color space : YUV
Chroma subsampling : 4:2:0
Bit depth : 8 bits
Scan type : Progressive
Bits/(Pixel*Frame) : 0.163
Stream size : 4.03 GiB (96%)
Color primaries : BT.709
Transfer characteristics : BT.709
Matrix coefficients : BT.709
Codec configuration box : avcC

WWE Raw 2021 08 30

Audio
ID : 2
Format : AAC LC
Format/Info : Advanced Audio
Codec ID : mp4a-40-2
Duration : 2 h 7 min
Bit rate mode : Constant
Bit rate : 192 kb/s
Channel(s) : 2 channels
Channel layout : L R
Sampling rate : 48.0 kHz
Frame rate : 46.875 FPS (1024 SPF)
Compression mode : Lossy
Stream size : 176 MiB (4%)
Title : Stereo
Language : English
Default : Yes
Alternate group : 1

WWE Raw 2021 08 30

Complete name : WWE.Monday.Night.Raw.2021.08.30.720p.HDTV.x264-NWCHD.mp4
Format : MPEG-4
Format profile : Base Media
Codec ID : isom
File size : 4.21 GiB
Duration : 2 h 7 min
Overall bit rate : 4 708 kb/s

Video
ID : 1
Format : AVC
Format/Info : Advanced Video
Duration : 2 h 7 min
Bit rate : 4 500 kb/s
Maximum bit rate : 4 586 kb/s
Width : 1 280 pixels
Height : 720 pixels
Display aspect ratio : 16:9
Frame rate mode : Variable
Frame rate : 29.970 (30000/1001) FPS
Minimum frame rate : 19.255 FPS
Maximum frame rate : 29.970 FPS
Color space : YUV
Chroma subsampling : 4:2:0
Bit depth : 8 bits
Scan type : Progressive
Bits/(Pixel*Frame) : 0.163
Stream size : 4.03 GiB (96%)
Color primaries : BT.709
Transfer characteristics : BT.709
Matrix coefficients : BT.709
Codec configuration box : avcC

WWE Raw 2021 08 30

Audio
ID : 2
Format : AAC LC
Format/Info : Advanced Audio
Codec ID : mp4a-40-2
Duration : 2 h 7 min
Bit rate mode : Constant
Bit rate : 192 kb/s
Channel(s) : 2 channels
Channel layout : L R
Sampling rate : 48.0 kHz
Frame rate : 46.875 FPS (1024 SPF)
Compression mode : Lossy
Stream size : 176 MiB (4%)
Title : Stereo
Language : English
Default : Yes
Alternate group : 1

WWE Raw 2021 08 30

Complete name : WWE.Monday.Night.Raw.2021.08.30.720p.HDTV.x264-NWCHD.mp4
Format : MPEG-4
Format profile : Base Media
Codec ID : isom
File size : 4.21 GiB
Duration : 2 h 7 min
Overall bit rate : 4 708 kb/s

Video
ID : 1
Format : AVC
Format/Info : Advanced Video
Duration : 2 h 7 min
Bit rate : 4 500 kb/s
Maximum bit rate : 4 586 kb/s
Width : 1 280 pixels
Height : 720 pixels
Display aspect ratio : 16:9
Frame rate mode : Variable
Frame rate : 29.970 (30000/1001) FPS
Minimum frame rate : 19.255 FPS
Maximum frame rate : 29.970 FPS
Color space : YUV
Chroma subsampling : 4:2:0
Bit depth : 8 bits
Scan type : Progressive
Bits/(Pixel*Frame) : 0.163
Stream size : 4.03 GiB (96%)
Color primaries : BT.709
Transfer characteristics : BT.709
Matrix coefficients : BT.709
Codec configuration box : avcC

WWE Raw 2021 08 30

Audio
ID : 2
Format : AAC LC
Format/Info : Advanced Audio
Codec ID : mp4a-40-2
Duration : 2 h 7 min
Bit rate mode : Constant
Bit rate : 192 kb/s
Channel(s) : 2 channels
Channel layout : L R
Sampling rate : 48.0 kHz
Frame rate : 46.875 FPS (1024 SPF)
Compression mode : Lossy
Stream size : 176 MiB (4%)
Title : Stereo
Language : English
Default : Yes
Alternate group : 1

WWE Raw 2021 08 30

 

[collapse]

 

 

https://dx-tv.com/

Leave a Reply

Your email address will not be published. Required fields are marked *

This site uses Akismet to reduce spam. Learn how your comment data is processed.