WWE Raw 2020 09 28 720p Full Show Free

Watch WWE Raw 2020 09 28 720p HDTV Star DX-TV

 

WWE Raw

 

 WWE Raw
 


 

 

WWE Raw 2020 09 28 720p Full Show Free

 

 

He ‘Claymore-d’ his way to victory which followed by a Punt Kick into the steels of the Ambulance. It should keep Orton out for sometimes as we can assume the feud is now over. McIntyre can now to receive a new opponent for his title, moving forward.

Zelina Vega was clearly not ready for Asuka at Clash of Champions. The Empress of Tomorrow overcame the challenge thrown by ‘La-Muneca’ for the Raw Women’s Title, but not before her opponent had a solid outing. To show respect, Asuka offered her hands after the title match but Vega isn’t calling for the truce. She rather took a cheap shot before leaving which could be an indication that the feud will continue. Peyton Royce is also eyeing the title held by Asuka which could begin a three-way program for the belt. WWE RAW

WWE RAW

The Business keeps on booming for Bobby Lashley and Co. The All-Mighty defeated Apollo Crews with authority to retain the United States Title while representing The Hurt Business. After putting down Crews with the Hurt Lock, Lashley is over with this ongoing feud. This allows The Dominator to turn his attention fully on the RETRIBUTION faction alongside the other Hurt Business members. The two groups went for head to head fights in recent weeks and they’d go for more physical altercations on WWE Raw.

 

Complete name : WWE.Monday.Night.Raw.2020.09.28.720p.HDTV.x264-Star.mkv
Format : Matroska
Format version : Version 4
File size : 4.75 GiB
Duration : 2 h 11 min
Overall bit rate : 5 158 kb/s
Writing library : Lavf58.29.100
Detection Type : Per level 1

WWE RAW

Video
ID : 1
Format : AVC
Duration : 2 h 11 min
Bit rate : 5 000 kb/s
Width : 1 280 pixels
Height : 720 pixels
Display aspect ratio : 16:9
Frame rate mode : Constant
 rate : 29.970 (30000/1001) FPS
Color space : YUV
Chroma subsampling : 4:2:0
Bit depth : 8 bits
Scan type : Progressive
Bits/(Pixel*Frame) : 0.181
Stream size : 4.48 GiB (94%)
Forced : No
Color range : Limited
Color primaries : BT.709
Transfer characteristics : BT.709
Matrix coefficients : BT.709

WWE RAW

Audio
ID : 2
Format : AC-3
Format/Info : Audio Coding 3
Commercial name : Dolby Digital
Codec ID : A_AC3
Duration : 2 h 11 min
Bit rate mode : Constant
Bit rate : 192 kb/s
Channel(s) : 2 channels
Channel layout : L R
Sampling rate : 48.0 kHz
Frame rate : 31.250 FPS (1536 SPF)
Compression mode : Lossy
Delay relative to video : -5 ms
Stream size : 181 MiB (4%)
Title : Stereo
Service kind : Complete Main
Default : Yes
Forced : No

 

 

 

WWE Raw 2020 09 28 720p Full Show Free

 

 

 

 

Watch online

 

 

 

 

 

Server 1

 

 

 

 

watch now

 

 

 

 

Server-2

 

 

 

watch now

 

 

 

 

Server-3

 

 

 

WWE RAW

 

 

 

 

Uploaded By Site DX-TV.com

 

 

 

 

Download Free Links with normal and high Speed [ more 15 hosts ]  

 

 

 

http://shrt10.com/o66YsXa
http://shrt10.com/Vszf7R3S
http://shrt10.com/G3Z4Ua1Vk
http://shrt10.com/a2rpn1
http://shrt10.com/rLNtuS2Jc
http://shrt10.com/UzPcbG
http://shrt10.com/0VjCWWCk
http://shrt10.com/gDUM6
http://shrt10.com/fOYrR

 

 

 

 

Download Links with premium High Speed   

 

 

 

 

 

 

nitroflare.com

 

 

 

rapidgator.net

 

 

 

uploaded.net

 

 

 

uploadgig.com

 

 

 

 

 

dx-tv.com

 

urlfree.net

Leave a Reply

Your email address will not be published. Required fields are marked *

This site uses Akismet to reduce spam. Learn how your comment data is processed.