WWE RAW 2020 03 23 720p HDTV Star

Watch WWE RAW 2020 03 23 720p HDTV Star DX-TV

 

WWE

 WWE RAW

 

 

WWE RAW 2020 03 23 720p HDTV Star

 

 

 

Complete name : WWE.RAW.2020.03.23.720p.HDTV.x264-Star.mkv
Format : Matroska
Format version : Version 4
File size : 5.87 GiB
Duration : 2 h 11 min
Overall bit rate : 6 372 kb/s
Writing library : Lavf58.29.100
ErrorDetectionType : Per level 1

Video
ID : 1
Duration : 2 h 11 min
Bit rate : 6 000 kb/s
Width : 1 280 pixels
Height : 720 pixels
Display aspect ratio : 16:9
Frame rate mode : WWE
Frame rate : 59.940 (60000/1001) FPS
Color space : YUV
Chroma subsampling : 4:2:0
Bit depth : 8 bits
Scan type : WWE
Bits/(Pixel*Frame) : 0.109
Stream size : 5.40 GiB (92%)
Color range : Limited
Color primaries : BT.709
Transfer : WWE
Matrix coefficients : BT.709

Audio
ID : 2
Format : AC-3
Format/Info : WWE
Codec ID : A_AC3
Duration : 2 h 11 min
Bit rate mode : Constant
Bit rate : 384 kb/s
Channel(s) : 6 channels
Channel layout : L R C LFE Ls Rs
Sampling rate : 48.0 kHz
Frame rate : 31.250 FPS (1536 SPF)
Compression mode : Lossy
Delay relative to video : -5 ms
Stream size : 362 MiB (6%)
Title : WWE
Service kind : WWE
Default : Yes
Forced : No

 

 

 

Watch online

 

 

Server 1

 

 

 

 

watch now

 

 

 

 

Server 2

 

 

 

watch now

 

 

 

WWE RAW 2020 03 23 720p HDTV Star

 

 

Uploaded By Site DX-TV.com

 

 

Download with Free LinksĀ 

 

 

1fichier.com

https://shrt10.com/lbRT0VhAO
https://shrt10.com/SssDiurh
https://shrt10.com/DApyvn
https://shrt10.com/XKQ7hyu

 

DDL.to

htps://shrt10.com/DiZUwS4
https://shrt10.com/6F3E3Ia
https://shrt10.com/FqPbyIV1Z
https://shrt10.com/YPBNaM819

 

 

Download with premium account LinksĀ 

 

 

Keep2Share

 

 

mixdrop.co

 

 

alfafile.net

 

 

nitroflare.com

 

 

rapidgator.net

 

 

uploadgig.com

 

 

 

dx-tv.com

 

urlfree.net

Leave a Reply

Your email address will not be published. Required fields are marked *

This site uses Akismet to reduce spam. Learn how your comment data is processed.