WWE RAW 2020 03 23 1080p HDTV Star

Watch WWE RAW 2020 03 23 1080p HDTV Star DX-TV

 

WWE

 WWE RAW

 

 

WWE RAW 2020 03 23 1080p HDTV Star

 

 

 
Complete name : WWE.RAW.2020.03.23.1080p.HDTV.x264-Star.mkv
Format : Matroska
Format version : WWE
File size : 14.2 GiB
Duration : 2 h 11 min
Overall bit rate : 15.4 Mb/s
ErrorDetectionType : WWE

Video
ID : 1
Format : AVC
Duration : 2 h 11 min
Bit rate : 15.0 Mb/s
Width : 1 920 pixels
Height : 1 080 pixels
Display aspect ratio : 16:9
Frame rate mode : WWE
Frame rate : 59.940 (60000/1001) FPS
Color space : YUV
Chroma  : 4:2:0
Bit depth : 8 bits
Scan type : WWE
Bits/(Pixel*Frame) : 0.121
Stream size : 13.5 GiB (95%)
Forced : No
Color range : Limited
Color primaries : BT.709
Transfer characteristics : WWE
Matrix coefficients : BT.709

Audio
ID : 2
Format : AC-3
Codec ID : A_AC3
Duration : 2 h 11 min
Bit rate mode : WWE
Bit rate : 448 kb/s
Channel(s) : 6 channels
Channel layout : L R C LFE Ls Rs
Sampling rate : 48.0 kHz
Frame rate : 31.250 FPS (1536 SPF)
Compression mode : Lossy
Delay relative to video : -5 ms
Stream size : 423 MiB (3%)
Title : WWE
Service kind : WWE
Default : Yes
Forced : No

 

 

 

Watch online

 

 

Server 1

 

 

 

 

watch now

 

 

 

 

Server 2

 

 

 

watch now

 

 

 

WWE RAW 2020 03 23 1080p HDTV Star

 

 

Uploaded By Site DX-TV.com

 

 

Download with Free Links 

 

 

1fichier.com

https://shrt10.com/4gpSP
https://shrt10.com/CKVhY
https://shrt10.com/4CCiqGmzM

 

Download with premium account Links 

 

 

Keep2Share

 

 

nitroflare.com

htps://shrt10.com/n8soCW9rh
https://shrt10.com/Iw421
https://shrt10.com/9B6ePPIF

 

rapidgator.net

 

 

uploadgig.com

htps://shrt10.com/4yR2w
https://shrt10.com/KhFL75i
https://shrt10.com/L0R0Ka

 

 

dx-tv.com

 

urlfree.net

Leave a Reply

Your email address will not be published. Required fields are marked *

This site uses Akismet to reduce spam. Learn how your comment data is processed.