WWE RAW 2020 02 17 720p HDTV Star

Watch WWE RAW 2020 02 17 720p HDTV Star DX-TV

WWE RAW

 

 

 WWE RAW

 

 

 

 

WWE RAW 2020 02 17 720p HDTV Star

 

Complete name : WWE.RAW.2020.02.17.720p.HDTV.x264-Star.mkv
Format : Matroska
Format version : Version 4
File size : 5.45 GiB
Duration : 2 h 12 min
Overall bit rate : 5 907 kb/s
Writing library : Lavf58.29.100
ErrorDetectionType : Per level 1

Video
ID : 1
Format : AVC
Duration : 2 h 12 min
Bit rate : 5 500 kb/s
Width : 1 280 pixels
Height : 720 pixels
Display aspect ratio : 16:9
Frame rate mode : Constant
Frame rate : 25.000 FPS
Color space : YUV
Chroma subsampling : 4:2:0
Bit depth : 8 bits
Scan type : Progressive
Bits/(Pixel*Frame) : 0.239
Stream size : 4.98 GiB (92%)
Color range : Limited
Color primaries : BT.709
Transfer characteristics : BT.709
Matrix coefficients : BT.709

Audio
ID : 2
Format : AC-3
Codec ID : A_AC3
Duration : 2 h 12 min
Bit rate mode : Constant
Bit rate : 384 kb/s
Channel(s) : 6 channels
Channel layout : L R C LFE Ls Rs
Sampling rate : 48.0 kHz
Frame rate : 31.250 FPS (1536 SPF)
Compression mode : Lossy
Delay relative to video : -5 ms
Stream size : 363 MiB (7%)
Title : Surround
Language : any
Service kind : Complete Main
Default : Yes
Forced : No

 

 

Watch online

 

 

Server 1

 

watch now

 

 

 

WWE RAW 2020 02 17 720p HDTV Star

 

 

Uploaded By Site DX-TV.com

 

 

 

1fichier.comĀ 

 

 

DDL.to

https://shrt10.com/7Ptfi6w
https://shrt10.com/Cg4L2P
https://shrt10.com/Bhs1dQbdM
https://shrt10.com/zmRUf5z

 

rockfile.co

https://shrt10.com/TvcAx
https://shrt10.com/E1r4I
https://shrt10.com/iErXmrc
https://shrt10.com/F5K0G

 

 

Download with premium account LinksĀ 

 

 

Keep2Share

https://shrt10.com/WNEPDKJgI
https://shrt10.com/torLRQ
https://shrt10.com/vfsbSqf6r
https://shrt10.com/APXghY

 

alfafile.net

https://shrt10.com/rYbuPEp
https://shrt10.com/9fjr3zKfg
https://shrt10.com/zIRFTVH
https://shrt10.com/RaXD5D

 

nitroflare.com

 

 

rapidgator.net

 

 

uploadgig.com

 

 

 

dx-tv.com

 

WE need Staff/ Uploader/ Capper best quality For DX-TV
For More INFO Send PM for Admin on Email : [email protected]

X