WWE Raw 2020 02 03 Full Show

WWE Raw 2020 02 03 Full Show DX-TV

 

 

 wwe raw

 

 

 

WWE Raw 2020 02 03 Full Show

 

 

 

 

 

Complete name : WWE.Monday.Night.Raw.2020.02.03.HDTV.x264-NWCHD.mp4
Format : MPEG-4
Format profile : Base Media
Codec ID : isom
File size : 1.44 GiB
Duration : 2 h 8 min
Overall bit rate : 1 605 kb/s
Writing application : Lavf58.27.103

Video
ID : 1
Format : AVC
Duration : 2 h 8 min
Bit rate : 1 400 kb/s
Width : 704 pixels
Height : 400 pixels
Display aspect ratio : 16:9
Frame rate mode : Variable
Frame rate : 29.970 (30000/1001) FPS
Minimum frame rate : 25.042 FPS
Maximum frame rate : 29.970 FPS
Color space : YUV
Chroma subsampling : 4:2:0
Bit depth : 8 bits
Scan type : Progressive
Bits/(Pixel*Frame) : 0.166
Stream size : 1.26 GiB (87%)
Color primaries : BT.709
Transfer characteristics : BT.709
Matrix coefficients : BT.709
Codec configuration box : avcC

Audio
ID : 2
Format : AAC LC
Format/Info : Advanced Audio Codec Low Complexity
Codec ID : mp4a-40-2
Duration : 2 h 8 min
Bit rate mode : Constant
Bit rate : 192 kb/s
Channel(s) : 2 channels
Channel layout : L R
Sampling rate : 48.0 kHz
Frame rate : 46.875 FPS (1024 SPF)
Compression mode : Lossy
Stream size : 176 MiB (12%)
Title : Stereo
Default : Yes
Alternate group : 1

 

With no one banned anyone from ringside, all signs pointed to some shenanigans during Liv Morgan’s rematch with Lana. Surprisingly, that wasn’t the case.

No one got involved in the match, and Liv won without incident. After the match, however, was a different story.

Morgan’s victory lap over The Ravishing Russian was spoiled by the sudden return of Ruby Riott, who returned to seemingly congratulate her former

Riott Squad running mate and then suddenly attacked, dropping Morgan and leaving her to the mercy — or lack thereof — of The Ravishing Russian,

who struck with a facebuster. Clearly, the new Liv Morgan is not someone who has a problem making enemies; good for her, then, that the list is growing by the day.

 

Watch online

 

 

Server 1

 

 

 

watch now

 

 

WWE Raw 2020 02 03 Full Show

 

 

 

Uploaded By Site DX-TV.com

 

 

 

 

 

1fichier.com 

 

 

DDL.to

 

 

dl.free.fr

 

 

earn4files.com

 

 

filerio.in

 

 

rockfile.co

 

 

 

Download with premium account Links 

 

 

nitroflare.com

 

 

rapidgator.net

 

 

dx-tv.com

 

WE need Staff/ Uploader/ Capper best quality For DX-TV
For More INFO Send PM for Admin on Email : [email protected]

X