WWE RAW 2018 09 24 720p HDTV Star

WWE RAW 2018 09 24 720p HDTV Star

 

 

 

 


 

 

 

dx-tv.com

 

 

 

 

Complete name : WWE.RAW.2018.09.24.720p.HDTV.x264-Star.mp4
Format : MPEG-4
File size : 4.58 GiB
Duration : 2 h 19 min
Overall bit rate mode : Variable
Overall bit rate : 4 706 kb/s
Encoded date : UTC 2018-09-25 04:14:20
Tagged date : UTC 2018-09-25 04:14:20

Video
ID : 1
Format : AVC
Format/Info : Advanced Video Codec
Codec ID/Info : Advanced Video Coding
Duration : 2 h 19 min
Bit rate : 4 500 kb/s
Width : 1 280 pixels
Height : 720 pixels
Display aspect ratio : 16:9
Frame rate mode : Constant
Frame rate : 29.970
Color space : YUV
Chroma subsampling : 4:2:0
Bit depth : 8 bits
Scan type : Progressive
Bits/(Pixel*Frame) : 0.163
Stream size : 4.38 GiB (96%)
Encoded date : UTC 2018-09-25 04:14:20
Tagged date : UTC 2018-09-25 04:14:20
Color range : Limited
Color primaries : BT.709
Transfer characteristics : BT.709
Matrix coefficients : BT.709

Audio
ID : 2
Format : AAC
Format/Info : Advanced Audio Codec
Format profile : LC
Codec ID : mp4a-40-2
Duration : 2 h 19 min
Bit rate mode : Variable
Bit rate : 192 kb/s
Channel(s) : 2 channels
Channel positions : Front: L R
Sampling rate : 48.0 kHz
Frame rate : 46.875 FPS
Compression mode : Lossy
Stream size : 191 MiB (4%)
Title : Stereo / Stereo
Default : Yes
Alternate group : 1
Encoded date : UTC 2018-09-25 04:14:20
Tagged date : UTC 2018-09-25 04:14:20

 

 

 

 

 

 

WWE RAW 2018 09 24 720p HDTV Star

 

 

 

 

Watch online

 

 

Waiting finish converting video

 

 

Server 1

 

 

 

 

 

 

 

 

 

 

 

 

 

 

 

Server 2

 

 

 

 

 

 


 

 

 

 

 

 

 

Uploaded By Site DX-TV.com

 

 

 

open rar file to see this password

 

 

 

 

The password : DX-TV.com

 

 

 

 

 

 

Uploaded.net + rapidgator.net

 

 

 

 

 

 
http://shrt10.com/25l7q7E9

 

 

 

 

 
http://shrt10.com/8Xrx
 

 

 

WWE RAW 2018 09 24 720p HDTV Star