WWE Raw 11 May 2020 Online Free HDTV NWCHD

Watch WWE Monday Night Raw 11 May 2020 HDTV NWCHD DX-TV

WWE raw

 WWE RAW

 

 

WWE Raw 11 May 2020 Online Free HDTV NWCHD

 

 

 

Complete name : WWE.Monday.Night.Raw.2020.05.11.HDTV.x264-NWCHD.mp4
Format : MPEG-4
Format profile : Base Media
Codec ID : WWE raw
File size : 1.39 GiB
Duration : 2 h 4 min
Overall bit rate : 1 590 kb/s
Writing application : Lavf58.27.103

Video
ID : 1
Format : AVC
Format/Info : WWE raw
Duration : 2 h 4 min
Bit rate : 1 400 kb/s
Width : 704 pixels
Height : 400 pixels
aspect ratio : 16:9
rate mode : WWE raw
Frame rate : 29.970 (30000/1001) FPS
Color space : YUV
Chroma subsampling : 4:2:0
Bit depth : 8 bits
Scan type : Progressive
Bits/(Pixel*Frame) : 0.166
Stream size : 1.21 GiB (87%)
Color primaries : BT.709
Transfer : WWE
Matrix : BT.709
Codec box : avcC

Audio
ID : 2
Format : AAC LC
Format/Info : WWE raw
Codec ID : mp4a-40-2
Duration : 2 h 4 min
Bit rate mode : Constant
Bit rate : 192 kb/s
Channel(s) : 2 channels
Channel layout : WWE raw
Sampling rate : 48.0 kHz
Frame rate : 46.875 FPS (1024 SPF)
Compression mode : Lossy
Stream size : 171 MiB (12%)
Title : Stereo
Default : Yes
Alternate group : WWE raw

 

 

 

Watch online

 

 

Server 1

 

 

 

 

watch now

 

 

 

 

Server 2

 

 

 

watch now

 

 

 

WWE Raw 11 May 2020 Online Free HDTV NWCHD

 

 

Uploaded By Site DX-TV.com

 

 

 

Download with premium account LinksĀ 

 

 

Keep2Share

 

 

nitroflare.com

 

 

rapidgator.net

 

 

uploadgig.com

 

 

 

dx-tv.com

 

urlfree.net

You May Also Like