WWE Raw 11 Jan 2021 Watch Free Online 720p DX-TV

WWE Raw 11 Jan 2021 Watch Free Online 720p DX-TV

WWE Raw 11 Jan 2021

 WWE RAW

 

Download Links with premium High Speed   

 

 

nitroflare.com

http://shrt10.com/moSHx
http://shrt10.com/QPIiY

 

 

rapidgator.net

http://shrt10.com/mX14f
http://shrt10.com/INmood3Y

 

 

uploaded.net

http://shrt10.com/tzjvKV
http://shrt10.com/dKiaTc6x

 

 

uploadgig.com

http://shrt10.com/94I81
http://shrt10.com/PlSTcFs4

 

Watch WWE Raw 11 Jan online

 

Server 1

 

 

 

 

WWE Raw 11 Jan

 

 

 

 

Server-2

 

 

 

 

WWE Raw 11 Jan

 

 

Uploaded By Site DX-TV.com

 

 

Complete name :WWE.Monday.Night.Raw.2021.01.11.HDTV.x264-NWCHD.mp4
Format : MPEG-4
Format profile : Base Media
Codec ID : isom
File size : 1.41 GiB
Duration : 2 h 7 min
Overall bit rate : 1 582 kb/s
Writing application : Lavf58.27.103

WWE Raw 11 Jan

Video
ID : 1
Format : AVC
Duration : 2 h 7 min
Bit rate : 1 400 kb/s
Width : 704 pixels
Height : 400 pixels
Display aspect ratio : 16:9
Frame rate mode : Variable
Frame rate : 29.970 (30000/1001) FPS
Color space : YUV
Chroma subsampling : 4:2:0
Bit depth : 8 bits
Scan type : Progressive
Bits/(Pixel*Frame) : 0.166
Stream size : 1.23 GiB (87%)
Color primaries : BT.709
Transfer characteristics : BT.709
Matrix coefficients : BT.709
Codec configuration box : avc

WWE Raw 11 Jan

Audio
ID : 2
Format : AAC LC
Format/Info : Advanced Audio
Codec ID : mp4a-40-2
Duration : 2 h 7 min
Bit rate mode : Constant
Bit rate : 192 kb/s
Channel(s) : 2 channels
Channel layout : L R
Sampling rate : 48.0 kHz
Frame rate : 46.875 FPS (1024 SPF)
Compression mode : Lossy
Stream size : 175 MiB (12%)
Title : Stereo
Language : English
Default : Yes
Alternate group : 1

Complete name : WWE.Monday.Night.Raw.2021.01.11.720p.HDTV.x264-NWCHD.mp4
Format : MPEG-4
Format profile : Base Media
Codec ID : isom
File size : 4.14 GiB
Duration : 2 h 7 min
Overall bit rate : 4 660 kb/s
Writing application : Lavf58.51.101

WWE Raw 11 Jan

Video
ID : 1
Format : AVC
Duration : 2 h 7 min
Bit rate : 4 500 kb/s
Width : 1 280 pixels
Height : 720 pixels
Display aspect ratio : 16:9
Frame rate mode : Variable
Frame rate : 29.970 (30000/1001) FPS
Color space : YUV
Chroma subsampling : 4:2:0
Bit depth : 8 bits
Scan type : Progressive
Bits/(Pixel*Frame) : 0.163
Stream size : 3.96 GiB (96%)
Color primaries : BT.709
Transfer characteristics : BT.709
Matrix coefficients : BT.709
Codec configuration box : avcC

Audio
ID : 2
Format : AAC LC
Format/Info : Advanced Audio
Codec ID : mp4a-40-2
Duration : 2 h 7 min
Bit rate mode : Constant
Bit rate : 192 kb/s
Channel(s) : 2 channels
Channel layout : L R
Sampling rate : 48.0 kHz
Frame rate : 46.875 FPS (1024 SPF)
Compression mode : Lossy
Stream size : 175 MiB (4%)
Title : Stereo
Language : English
Default : Yes
Alternate group : 1

 

 

https://dx-tv.com/

Leave a Reply

Your email address will not be published. Required fields are marked *

This site uses Akismet to reduce spam. Learn how your comment data is processed.