WWE Raw 1080p 2021 07 26 Online Free Replay

WWE Raw 1080p 2021 07 26 Online Free Replay DX-TV

WWE Raw 1080p

 WWE Raw 1080p

 

 

 

Download Links with premium High Speed


 

Dopapk

 

 

Show Links

 

http://shrt10.com/gq0kPqoQ

 

[collapse]

 

 

Nitroflare

 

 

Show Links

 

http://shrt10.com/ISjX6dvD6

 

[collapse]

 

 

Rapidgator

 

 

Show Links

 

http://shrt10.com/7ehEFS

 

[collapse]

 

 

Uploaded

 

 

Show Links

 

 

[collapse]

 

 

Watch online

 

Server 1

 

 

 

 

watch now

 

 

 

 

Server-2

 

 

 

 

WWE Raw 1080p

 

 

 

|Server-3

 

 

 

 

watch now

 

 

Uploaded By Site DX-TV.com

 

 

Show Info This Show

WWE Raw 1080p

 

Complete name : WWE.RAW.2021.07.26.1080p.WEB.h264-HEEL.mkv
Format : Matroska
Format version : Version 4
File size : 6.02 GiB
Duration : 2 h 12 min
Overall bit rate mode : Variable
Overall bit rate : 6 494 kb/s
Writing application : Lavf59.4.100
Writing library : Lavf59.4.100

Video
ID : 1
Format : AVC
Format/Info : Advanced Video
Duration : 2 h 12 min
Bit rate mode : Variable
Bit rate : 5 981 kb/s
Nominal bit rate : 163 kb/s
Maximum bit rate : 8 000 kb/s
Width : 1 920 pixels
Height : 1 080 pixels
Display aspect ratio : 16:9
Frame rate mode : Constant
Frame rate : 59.940 (60000/1001) FPS
Standard : Component
Color space : YUV
Chroma subsampling : 4:2:0
Bit depth : 8 bits
Scan type : Progressive
Bits/(Pixel*Frame) : 0.048
Stream size : 5.54 GiB (92%)
Forced : No
Color range : Limited
Color primaries : BT.709
Transfer characteristics : BT.709
Matrix coefficients : BT.709

WWE Raw 1080p

Audio
ID : 2
Format : AC-3
Format/Info : Audio Coding 3
Commercial name : Dolby Digital
Codec ID : A_AC3
Duration : 2 h 12 min
Bit rate mode : Constant
Bit rate : 384 kb/s
Channel(s) : 2 channels
Channel layout : L R
Sampling rate : 48.0 kHz
Frame rate : 31.250 FPS (1536 SPF)
Bit depth : 32 bits
Compression mode : Lossy
Stream size : 364 MiB (6%)
Language : English
Service kind : Complete Main
Default : Yes
Forced : No

WWE Raw 1080p

Complete name : WWE.RAW.2021.07.26.1080p.WEB.h264-HEEL.mkv
Format : Matroska
Format version : Version 4
File size : 6.02 GiB
Duration : 2 h 12 min
Overall bit rate mode : Variable
Overall bit rate : 6 494 kb/s
Writing application : Lavf59.4.100
Writing library : Lavf59.4.100

Video
ID : 1
Format : AVC
Format/Info : Advanced Video
Duration : 2 h 12 min
Bit rate mode : Variable
Bit rate : 5 981 kb/s
Nominal bit rate : 163 kb/s
Maximum bit rate : 8 000 kb/s
Width : 1 920 pixels
Height : 1 080 pixels
Display aspect ratio : 16:9
Frame rate mode : Constant
Frame rate : 59.940 (60000/1001) FPS
Standard : Component
Color space : YUV
Chroma subsampling : 4:2:0
Bit depth : 8 bits
Scan type : Progressive
Bits/(Pixel*Frame) : 0.048
Stream size : 5.54 GiB (92%)
Forced : No
Color range : Limited
Color primaries : BT.709
Transfer characteristics : BT.709
Matrix coefficients : BT.709

WWE Raw 1080p

Audio
ID : 2
Format : AC-3
Format/Info : Audio Coding 3
Commercial name : Dolby Digital
Codec ID : A_AC3
Duration : 2 h 12 min
Bit rate mode : Constant
Bit rate : 384 kb/s
Channel(s) : 2 channels
Channel layout : L R
Sampling rate : 48.0 kHz
Frame rate : 31.250 FPS (1536 SPF)
Bit depth : 32 bits
Compression mode : Lossy
Stream size : 364 MiB (6%)
Language : English
Service kind : Complete Main
Default : Yes
Forced : No

WWE Raw 1080p

Complete name : WWE.RAW.2021.07.26.1080p.WEB.h264-HEEL.mkv
Format : Matroska
Format version : Version 4
File size : 6.02 GiB
Duration : 2 h 12 min
Overall bit rate mode : Variable
Overall bit rate : 6 494 kb/s
Writing application : Lavf59.4.100
Writing library : Lavf59.4.100

Video
ID : 1
Format : AVC
Format/Info : Advanced Video
Duration : 2 h 12 min
Bit rate mode : Variable
Bit rate : 5 981 kb/s
Nominal bit rate : 163 kb/s
Maximum bit rate : 8 000 kb/s
Width : 1 920 pixels
Height : 1 080 pixels
Display aspect ratio : 16:9
Frame rate mode : Constant
Frame rate : 59.940 (60000/1001) FPS
Standard : Component
Color space : YUV
Chroma subsampling : 4:2:0
Bit depth : 8 bits
Scan type : Progressive
Bits/(Pixel*Frame) : 0.048
Stream size : 5.54 GiB (92%)
Forced : No
Color range : Limited
Color primaries : BT.709
Transfer characteristics : BT.709
Matrix coefficients : BT.709

WWE Raw 1080p

Audio
ID : 2
Format : AC-3
Format/Info : Audio Coding 3
Commercial name : Dolby Digital
Codec ID : A_AC3
Duration : 2 h 12 min
Bit rate mode : Constant
Bit rate : 384 kb/s
Channel(s) : 2 channels
Channel layout : L R
Sampling rate : 48.0 kHz
Frame rate : 31.250 FPS (1536 SPF)
Bit depth : 32 bits
Compression mode : Lossy
Stream size : 364 MiB (6%)
Language : English
Service kind : Complete Main
Default : Yes
Forced : No

WWE Raw 1080p

Complete name : WWE.RAW.2021.07.26.1080p.WEB.h264-HEEL.mkv
Format : Matroska
Format version : Version 4
File size : 6.02 GiB
Duration : 2 h 12 min
Overall bit rate mode : Variable
Overall bit rate : 6 494 kb/s
Writing application : Lavf59.4.100
Writing library : Lavf59.4.100

Video
ID : 1
Format : AVC
Format/Info : Advanced Video
Duration : 2 h 12 min
Bit rate mode : Variable
Bit rate : 5 981 kb/s
Nominal bit rate : 163 kb/s
Maximum bit rate : 8 000 kb/s
Width : 1 920 pixels
Height : 1 080 pixels
Display aspect ratio : 16:9
Frame rate mode : Constant
Frame rate : 59.940 (60000/1001) FPS
Standard : Component
Color space : YUV
Chroma subsampling : 4:2:0
Bit depth : 8 bits
Scan type : Progressive
Bits/(Pixel*Frame) : 0.048
Stream size : 5.54 GiB (92%)
Forced : No
Color range : Limited
Color primaries : BT.709
Transfer characteristics : BT.709
Matrix coefficients : BT.709

WWE Raw 1080p

Audio
ID : 2
Format : AC-3
Format/Info : Audio Coding 3
Commercial name : Dolby Digital
Codec ID : A_AC3
Duration : 2 h 12 min
Bit rate mode : Constant
Bit rate : 384 kb/s
Channel(s) : 2 channels
Channel layout : L R
Sampling rate : 48.0 kHz
Frame rate : 31.250 FPS (1536 SPF)
Bit depth : 32 bits
Compression mode : Lossy
Stream size : 364 MiB (6%)
Language : English
Service kind : Complete Main
Default : Yes
Forced : No

WWE Raw 1080p

Complete name : WWE.RAW.2021.07.26.1080p.WEB.h264-HEEL.mkv
Format : Matroska
Format version : Version 4
File size : 6.02 GiB
Duration : 2 h 12 min
Overall bit rate mode : Variable
Overall bit rate : 6 494 kb/s
Writing application : Lavf59.4.100
Writing library : Lavf59.4.100

Video
ID : 1
Format : AVC
Format/Info : Advanced Video
Duration : 2 h 12 min
Bit rate mode : Variable
Bit rate : 5 981 kb/s
Nominal bit rate : 163 kb/s
Maximum bit rate : 8 000 kb/s
Width : 1 920 pixels
Height : 1 080 pixels
Display aspect ratio : 16:9
Frame rate mode : Constant
Frame rate : 59.940 (60000/1001) FPS
Standard : Component
Color space : YUV
Chroma subsampling : 4:2:0
Bit depth : 8 bits
Scan type : Progressive
Bits/(Pixel*Frame) : 0.048
Stream size : 5.54 GiB (92%)
Forced : No
Color range : Limited
Color primaries : BT.709
Transfer characteristics : BT.709
Matrix coefficients : BT.709

WWE Raw 1080p

Audio
ID : 2
Format : AC-3
Format/Info : Audio Coding 3
Commercial name : Dolby Digital
Codec ID : A_AC3
Duration : 2 h 12 min
Bit rate mode : Constant
Bit rate : 384 kb/s
Channel(s) : 2 channels
Channel layout : L R
Sampling rate : 48.0 kHz
Frame rate : 31.250 FPS (1536 SPF)
Bit depth : 32 bits
Compression mode : Lossy
Stream size : 364 MiB (6%)
Language : English
Service kind : Complete Main
Default : Yes
Forced : No

WWE Raw 1080p

Complete name : WWE.RAW.2021.07.26.1080p.WEB.h264-HEEL.mkv
Format : Matroska
Format version : Version 4
File size : 6.02 GiB
Duration : 2 h 12 min
Overall bit rate mode : Variable
Overall bit rate : 6 494 kb/s
Writing application : Lavf59.4.100
Writing library : Lavf59.4.100

Video
ID : 1
Format : AVC
Format/Info : Advanced Video
Duration : 2 h 12 min
Bit rate mode : Variable
Bit rate : 5 981 kb/s
Nominal bit rate : 163 kb/s
Maximum bit rate : 8 000 kb/s
Width : 1 920 pixels
Height : 1 080 pixels
Display aspect ratio : 16:9
Frame rate mode : Constant
Frame rate : 59.940 (60000/1001) FPS
Standard : Component
Color space : YUV
Chroma subsampling : 4:2:0
Bit depth : 8 bits
Scan type : Progressive
Bits/(Pixel*Frame) : 0.048
Stream size : 5.54 GiB (92%)
Forced : No
Color range : Limited
Color primaries : BT.709
Transfer characteristics : BT.709
Matrix coefficients : BT.709

WWE Raw 1080p

Audio
ID : 2
Format : AC-3
Format/Info : Audio Coding 3
Commercial name : Dolby Digital
Codec ID : A_AC3
Duration : 2 h 12 min
Bit rate mode : Constant
Bit rate : 384 kb/s
Channel(s) : 2 channels
Channel layout : L R
Sampling rate : 48.0 kHz
Frame rate : 31.250 FPS (1536 SPF)
Bit depth : 32 bits
Compression mode : Lossy
Stream size : 364 MiB (6%)
Language : English
Service kind : Complete Main
Default : Yes
Forced : No

WWE Raw 1080p

Complete name : WWE.RAW.2021.07.26.1080p.WEB.h264-HEEL.mkv
Format : Matroska
Format version : Version 4
File size : 6.02 GiB
Duration : 2 h 12 min
Overall bit rate mode : Variable
Overall bit rate : 6 494 kb/s
Writing application : Lavf59.4.100
Writing library : Lavf59.4.100

Video
ID : 1
Format : AVC
Format/Info : Advanced Video
Duration : 2 h 12 min
Bit rate mode : Variable
Bit rate : 5 981 kb/s
Nominal bit rate : 163 kb/s
Maximum bit rate : 8 000 kb/s
Width : 1 920 pixels
Height : 1 080 pixels
Display aspect ratio : 16:9
Frame rate mode : Constant
Frame rate : 59.940 (60000/1001) FPS
Standard : Component
Color space : YUV
Chroma subsampling : 4:2:0
Bit depth : 8 bits
Scan type : Progressive
Bits/(Pixel*Frame) : 0.048
Stream size : 5.54 GiB (92%)
Forced : No
Color range : Limited
Color primaries : BT.709
Transfer characteristics : BT.709
Matrix coefficients : BT.709

WWE Raw 1080p

Audio
ID : 2
Format : AC-3
Format/Info : Audio Coding 3
Commercial name : Dolby Digital
Codec ID : A_AC3
Duration : 2 h 12 min
Bit rate mode : Constant
Bit rate : 384 kb/s
Channel(s) : 2 channels
Channel layout : L R
Sampling rate : 48.0 kHz
Frame rate : 31.250 FPS (1536 SPF)
Bit depth : 32 bits
Compression mode : Lossy
Stream size : 364 MiB (6%)
Language : English
Service kind : Complete Main
Default : Yes
Forced : No

WWE Raw 1080p

Complete name : WWE.RAW.2021.07.26.1080p.WEB.h264-HEEL.mkv
Format : Matroska
Format version : Version 4
File size : 6.02 GiB
Duration : 2 h 12 min
Overall bit rate mode : Variable
Overall bit rate : 6 494 kb/s
Writing application : Lavf59.4.100
Writing library : Lavf59.4.100

Video
ID : 1
Format : AVC
Format/Info : Advanced Video
Duration : 2 h 12 min
Bit rate mode : Variable
Bit rate : 5 981 kb/s
Nominal bit rate : 163 kb/s
Maximum bit rate : 8 000 kb/s
Width : 1 920 pixels
Height : 1 080 pixels
Display aspect ratio : 16:9
Frame rate mode : Constant
Frame rate : 59.940 (60000/1001) FPS
Standard : Component
Color space : YUV
Chroma subsampling : 4:2:0
Bit depth : 8 bits
Scan type : Progressive
Bits/(Pixel*Frame) : 0.048
Stream size : 5.54 GiB (92%)
Forced : No
Color range : Limited
Color primaries : BT.709
Transfer characteristics : BT.709
Matrix coefficients : BT.709

WWE Raw 1080p

Audio
ID : 2
Format : AC-3
Format/Info : Audio Coding 3
Commercial name : Dolby Digital
Codec ID : A_AC3
Duration : 2 h 12 min
Bit rate mode : Constant
Bit rate : 384 kb/s
Channel(s) : 2 channels
Channel layout : L R
Sampling rate : 48.0 kHz
Frame rate : 31.250 FPS (1536 SPF)
Bit depth : 32 bits
Compression mode : Lossy
Stream size : 364 MiB (6%)
Language : English
Service kind : Complete Main
Default : Yes
Forced : No

WWE Raw 1080p

Complete name : WWE.RAW.2021.07.26.1080p.WEB.h264-HEEL.mkv
Format : Matroska
Format version : Version 4
File size : 6.02 GiB
Duration : 2 h 12 min
Overall bit rate mode : Variable
Overall bit rate : 6 494 kb/s
Writing application : Lavf59.4.100
Writing library : Lavf59.4.100

Video
ID : 1
Format : AVC
Format/Info : Advanced Video
Duration : 2 h 12 min
Bit rate mode : Variable
Bit rate : 5 981 kb/s
Nominal bit rate : 163 kb/s
Maximum bit rate : 8 000 kb/s
Width : 1 920 pixels
Height : 1 080 pixels
Display aspect ratio : 16:9
Frame rate mode : Constant
Frame rate : 59.940 (60000/1001) FPS
Standard : Component
Color space : YUV
Chroma subsampling : 4:2:0
Bit depth : 8 bits
Scan type : Progressive
Bits/(Pixel*Frame) : 0.048
Stream size : 5.54 GiB (92%)
Forced : No
Color range : Limited
Color primaries : BT.709
Transfer characteristics : BT.709
Matrix coefficients : BT.709

WWE Raw 1080p

Audio
ID : 2
Format : AC-3
Format/Info : Audio Coding 3
Commercial name : Dolby Digital
Codec ID : A_AC3
Duration : 2 h 12 min
Bit rate mode : Constant
Bit rate : 384 kb/s
Channel(s) : 2 channels
Channel layout : L R
Sampling rate : 48.0 kHz
Frame rate : 31.250 FPS (1536 SPF)
Bit depth : 32 bits
Compression mode : Lossy
Stream size : 364 MiB (6%)
Language : English
Service kind : Complete Main
Default : Yes
Forced : No

WWE Raw 1080p

Complete name : WWE.RAW.2021.07.26.1080p.WEB.h264-HEEL.mkv
Format : Matroska
Format version : Version 4
File size : 6.02 GiB
Duration : 2 h 12 min
Overall bit rate mode : Variable
Overall bit rate : 6 494 kb/s
Writing application : Lavf59.4.100
Writing library : Lavf59.4.100

Video
ID : 1
Format : AVC
Format/Info : Advanced Video
Duration : 2 h 12 min
Bit rate mode : Variable
Bit rate : 5 981 kb/s
Nominal bit rate : 163 kb/s
Maximum bit rate : 8 000 kb/s
Width : 1 920 pixels
Height : 1 080 pixels
Display aspect ratio : 16:9
Frame rate mode : Constant
Frame rate : 59.940 (60000/1001) FPS
Standard : Component
Color space : YUV
Chroma subsampling : 4:2:0
Bit depth : 8 bits
Scan type : Progressive
Bits/(Pixel*Frame) : 0.048
Stream size : 5.54 GiB (92%)
Forced : No
Color range : Limited
Color primaries : BT.709
Transfer characteristics : BT.709
Matrix coefficients : BT.709

WWE Raw 1080p

Audio
ID : 2
Format : AC-3
Format/Info : Audio Coding 3
Commercial name : Dolby Digital
Codec ID : A_AC3
Duration : 2 h 12 min
Bit rate mode : Constant
Bit rate : 384 kb/s
Channel(s) : 2 channels
Channel layout : L R
Sampling rate : 48.0 kHz
Frame rate : 31.250 FPS (1536 SPF)
Bit depth : 32 bits
Compression mode : Lossy
Stream size : 364 MiB (6%)
Language : English
Service kind : Complete Main
Default : Yes
Forced : No

WWE Raw 1080p

Complete name : WWE.RAW.2021.07.26.1080p.WEB.h264-HEEL.mkv
Format : Matroska
Format version : Version 4
File size : 6.02 GiB
Duration : 2 h 12 min
Overall bit rate mode : Variable
Overall bit rate : 6 494 kb/s
Writing application : Lavf59.4.100
Writing library : Lavf59.4.100

Video
ID : 1
Format : AVC
Format/Info : Advanced Video
Duration : 2 h 12 min
Bit rate mode : Variable
Bit rate : 5 981 kb/s
Nominal bit rate : 163 kb/s
Maximum bit rate : 8 000 kb/s
Width : 1 920 pixels
Height : 1 080 pixels
Display aspect ratio : 16:9
Frame rate mode : Constant
Frame rate : 59.940 (60000/1001) FPS
Standard : Component
Color space : YUV
Chroma subsampling : 4:2:0
Bit depth : 8 bits
Scan type : Progressive
Bits/(Pixel*Frame) : 0.048
Stream size : 5.54 GiB (92%)
Forced : No
Color range : Limited
Color primaries : BT.709
Transfer characteristics : BT.709
Matrix coefficients : BT.709

WWE Raw 1080p

Audio
ID : 2
Format : AC-3
Format/Info : Audio Coding 3
Commercial name : Dolby Digital
Codec ID : A_AC3
Duration : 2 h 12 min
Bit rate mode : Constant
Bit rate : 384 kb/s
Channel(s) : 2 channels
Channel layout : L R
Sampling rate : 48.0 kHz
Frame rate : 31.250 FPS (1536 SPF)
Bit depth : 32 bits
Compression mode : Lossy
Stream size : 364 MiB (6%)
Language : English
Service kind : Complete Main
Default : Yes
Forced : No

WWE Raw 1080p

Complete name : WWE.RAW.2021.07.26.1080p.WEB.h264-HEEL.mkv
Format : Matroska
Format version : Version 4
File size : 6.02 GiB
Duration : 2 h 12 min
Overall bit rate mode : Variable
Overall bit rate : 6 494 kb/s
Writing application : Lavf59.4.100
Writing library : Lavf59.4.100

Video
ID : 1
Format : AVC
Format/Info : Advanced Video
Duration : 2 h 12 min
Bit rate mode : Variable
Bit rate : 5 981 kb/s
Nominal bit rate : 163 kb/s
Maximum bit rate : 8 000 kb/s
Width : 1 920 pixels
Height : 1 080 pixels
Display aspect ratio : 16:9
Frame rate mode : Constant
Frame rate : 59.940 (60000/1001) FPS
Standard : Component
Color space : YUV
Chroma subsampling : 4:2:0
Bit depth : 8 bits
Scan type : Progressive
Bits/(Pixel*Frame) : 0.048
Stream size : 5.54 GiB (92%)
Forced : No
Color range : Limited
Color primaries : BT.709
Transfer characteristics : BT.709
Matrix coefficients : BT.709

WWE Raw 1080p

Audio
ID : 2
Format : AC-3
Format/Info : Audio Coding 3
Commercial name : Dolby Digital
Codec ID : A_AC3
Duration : 2 h 12 min
Bit rate mode : Constant
Bit rate : 384 kb/s
Channel(s) : 2 channels
Channel layout : L R
Sampling rate : 48.0 kHz
Frame rate : 31.250 FPS (1536 SPF)
Bit depth : 32 bits
Compression mode : Lossy
Stream size : 364 MiB (6%)
Language : English
Service kind : Complete Main
Default : Yes
Forced : No

WWE Raw 1080p

Complete name : WWE.RAW.2021.07.26.1080p.WEB.h264-HEEL.mkv
Format : Matroska
Format version : Version 4
File size : 6.02 GiB
Duration : 2 h 12 min
Overall bit rate mode : Variable
Overall bit rate : 6 494 kb/s
Writing application : Lavf59.4.100
Writing library : Lavf59.4.100

Video
ID : 1
Format : AVC
Format/Info : Advanced Video
Duration : 2 h 12 min
Bit rate mode : Variable
Bit rate : 5 981 kb/s
Nominal bit rate : 163 kb/s
Maximum bit rate : 8 000 kb/s
Width : 1 920 pixels
Height : 1 080 pixels
Display aspect ratio : 16:9
Frame rate mode : Constant
Frame rate : 59.940 (60000/1001) FPS
Standard : Component
Color space : YUV
Chroma subsampling : 4:2:0
Bit depth : 8 bits
Scan type : Progressive
Bits/(Pixel*Frame) : 0.048
Stream size : 5.54 GiB (92%)
Forced : No
Color range : Limited
Color primaries : BT.709
Transfer characteristics : BT.709
Matrix coefficients : BT.709

WWE Raw 1080p

Audio
ID : 2
Format : AC-3
Format/Info : Audio Coding 3
Commercial name : Dolby Digital
Codec ID : A_AC3
Duration : 2 h 12 min
Bit rate mode : Constant
Bit rate : 384 kb/s
Channel(s) : 2 channels
Channel layout : L R
Sampling rate : 48.0 kHz
Frame rate : 31.250 FPS (1536 SPF)
Bit depth : 32 bits
Compression mode : Lossy
Stream size : 364 MiB (6%)
Language : English
Service kind : Complete Main
Default : Yes
Forced : No

WWE Raw 1080p

Complete name : WWE.RAW.2021.07.26.1080p.WEB.h264-HEEL.mkv
Format : Matroska
Format version : Version 4
File size : 6.02 GiB
Duration : 2 h 12 min
Overall bit rate mode : Variable
Overall bit rate : 6 494 kb/s
Writing application : Lavf59.4.100
Writing library : Lavf59.4.100

Video
ID : 1
Format : AVC
Format/Info : Advanced Video
Duration : 2 h 12 min
Bit rate mode : Variable
Bit rate : 5 981 kb/s
Nominal bit rate : 163 kb/s
Maximum bit rate : 8 000 kb/s
Width : 1 920 pixels
Height : 1 080 pixels
Display aspect ratio : 16:9
Frame rate mode : Constant
Frame rate : 59.940 (60000/1001) FPS
Standard : Component
Color space : YUV
Chroma subsampling : 4:2:0
Bit depth : 8 bits
Scan type : Progressive
Bits/(Pixel*Frame) : 0.048
Stream size : 5.54 GiB (92%)
Forced : No
Color range : Limited
Color primaries : BT.709
Transfer characteristics : BT.709
Matrix coefficients : BT.709

WWE Raw 1080p

Audio
ID : 2
Format : AC-3
Format/Info : Audio Coding 3
Commercial name : Dolby Digital
Codec ID : A_AC3
Duration : 2 h 12 min
Bit rate mode : Constant
Bit rate : 384 kb/s
Channel(s) : 2 channels
Channel layout : L R
Sampling rate : 48.0 kHz
Frame rate : 31.250 FPS (1536 SPF)
Bit depth : 32 bits
Compression mode : Lossy
Stream size : 364 MiB (6%)
Language : English
Service kind : Complete Main
Default : Yes
Forced : No

WWE Raw 1080p

Complete name : WWE.RAW.2021.07.26.1080p.WEB.h264-HEEL.mkv
Format : Matroska
Format version : Version 4
File size : 6.02 GiB
Duration : 2 h 12 min
Overall bit rate mode : Variable
Overall bit rate : 6 494 kb/s
Writing application : Lavf59.4.100
Writing library : Lavf59.4.100

Video
ID : 1
Format : AVC
Format/Info : Advanced Video
Duration : 2 h 12 min
Bit rate mode : Variable
Bit rate : 5 981 kb/s
Nominal bit rate : 163 kb/s
Maximum bit rate : 8 000 kb/s
Width : 1 920 pixels
Height : 1 080 pixels
Display aspect ratio : 16:9
Frame rate mode : Constant
Frame rate : 59.940 (60000/1001) FPS
Standard : Component
Color space : YUV
Chroma subsampling : 4:2:0
Bit depth : 8 bits
Scan type : Progressive
Bits/(Pixel*Frame) : 0.048
Stream size : 5.54 GiB (92%)
Forced : No
Color range : Limited
Color primaries : BT.709
Transfer characteristics : BT.709
Matrix coefficients : BT.709

WWE Raw 1080p

Audio
ID : 2
Format : AC-3
Format/Info : Audio Coding 3
Commercial name : Dolby Digital
Codec ID : A_AC3
Duration : 2 h 12 min
Bit rate mode : Constant
Bit rate : 384 kb/s
Channel(s) : 2 channels
Channel layout : L R
Sampling rate : 48.0 kHz
Frame rate : 31.250 FPS (1536 SPF)
Bit depth : 32 bits
Compression mode : Lossy
Stream size : 364 MiB (6%)
Language : English
Service kind : Complete Main
Default : Yes
Forced : No

WWE Raw 1080p

Complete name : WWE.RAW.2021.07.26.1080p.WEB.h264-HEEL.mkv
Format : Matroska
Format version : Version 4
File size : 6.02 GiB
Duration : 2 h 12 min
Overall bit rate mode : Variable
Overall bit rate : 6 494 kb/s
Writing application : Lavf59.4.100
Writing library : Lavf59.4.100

Video
ID : 1
Format : AVC
Format/Info : Advanced Video
Duration : 2 h 12 min
Bit rate mode : Variable
Bit rate : 5 981 kb/s
Nominal bit rate : 163 kb/s
Maximum bit rate : 8 000 kb/s
Width : 1 920 pixels
Height : 1 080 pixels
Display aspect ratio : 16:9
Frame rate mode : Constant
Frame rate : 59.940 (60000/1001) FPS
Standard : Component
Color space : YUV
Chroma subsampling : 4:2:0
Bit depth : 8 bits
Scan type : Progressive
Bits/(Pixel*Frame) : 0.048
Stream size : 5.54 GiB (92%)
Forced : No
Color range : Limited
Color primaries : BT.709
Transfer characteristics : BT.709
Matrix coefficients : BT.709

WWE Raw 1080p

Audio
ID : 2
Format : AC-3
Format/Info : Audio Coding 3
Commercial name : Dolby Digital
Codec ID : A_AC3
Duration : 2 h 12 min
Bit rate mode : Constant
Bit rate : 384 kb/s
Channel(s) : 2 channels
Channel layout : L R
Sampling rate : 48.0 kHz
Frame rate : 31.250 FPS (1536 SPF)
Bit depth : 32 bits
Compression mode : Lossy
Stream size : 364 MiB (6%)
Language : English
Service kind : Complete Main
Default : Yes
Forced : No

WWE Raw 1080p

Complete name : WWE.RAW.2021.07.26.1080p.WEB.h264-HEEL.mkv
Format : Matroska
Format version : Version 4
File size : 6.02 GiB
Duration : 2 h 12 min
Overall bit rate mode : Variable
Overall bit rate : 6 494 kb/s
Writing application : Lavf59.4.100
Writing library : Lavf59.4.100

Video
ID : 1
Format : AVC
Format/Info : Advanced Video
Duration : 2 h 12 min
Bit rate mode : Variable
Bit rate : 5 981 kb/s
Nominal bit rate : 163 kb/s
Maximum bit rate : 8 000 kb/s
Width : 1 920 pixels
Height : 1 080 pixels
Display aspect ratio : 16:9
Frame rate mode : Constant
Frame rate : 59.940 (60000/1001) FPS
Standard : Component
Color space : YUV
Chroma subsampling : 4:2:0
Bit depth : 8 bits
Scan type : Progressive
Bits/(Pixel*Frame) : 0.048
Stream size : 5.54 GiB (92%)
Forced : No
Color range : Limited
Color primaries : BT.709
Transfer characteristics : BT.709
Matrix coefficients : BT.709

WWE Raw 1080p

Audio
ID : 2
Format : AC-3
Format/Info : Audio Coding 3
Commercial name : Dolby Digital
Codec ID : A_AC3
Duration : 2 h 12 min
Bit rate mode : Constant
Bit rate : 384 kb/s
Channel(s) : 2 channels
Channel layout : L R
Sampling rate : 48.0 kHz
Frame rate : 31.250 FPS (1536 SPF)
Bit depth : 32 bits
Compression mode : Lossy
Stream size : 364 MiB (6%)
Language : English
Service kind : Complete Main
Default : Yes
Forced : No

WWE Raw 1080p

Complete name : WWE.RAW.2021.07.26.1080p.WEB.h264-HEEL.mkv
Format : Matroska
Format version : Version 4
File size : 6.02 GiB
Duration : 2 h 12 min
Overall bit rate mode : Variable
Overall bit rate : 6 494 kb/s
Writing application : Lavf59.4.100
Writing library : Lavf59.4.100

Video
ID : 1
Format : AVC
Format/Info : Advanced Video
Duration : 2 h 12 min
Bit rate mode : Variable
Bit rate : 5 981 kb/s
Nominal bit rate : 163 kb/s
Maximum bit rate : 8 000 kb/s
Width : 1 920 pixels
Height : 1 080 pixels
Display aspect ratio : 16:9
Frame rate mode : Constant
Frame rate : 59.940 (60000/1001) FPS
Standard : Component
Color space : YUV
Chroma subsampling : 4:2:0
Bit depth : 8 bits
Scan type : Progressive
Bits/(Pixel*Frame) : 0.048
Stream size : 5.54 GiB (92%)
Forced : No
Color range : Limited
Color primaries : BT.709
Transfer characteristics : BT.709
Matrix coefficients : BT.709

WWE Raw 1080p

Audio
ID : 2
Format : AC-3
Format/Info : Audio Coding 3
Commercial name : Dolby Digital
Codec ID : A_AC3
Duration : 2 h 12 min
Bit rate mode : Constant
Bit rate : 384 kb/s
Channel(s) : 2 channels
Channel layout : L R
Sampling rate : 48.0 kHz
Frame rate : 31.250 FPS (1536 SPF)
Bit depth : 32 bits
Compression mode : Lossy
Stream size : 364 MiB (6%)
Language : English
Service kind : Complete Main
Default : Yes
Forced : No

WWE Raw 1080p

 

[collapse]

 

 

https://dx-tv.com/

Leave a Reply

Your email address will not be published. Required fields are marked *

This site uses Akismet to reduce spam. Learn how your comment data is processed.