WWE Raw 04 Jan 2021 HDTV Full Show Online DX-TV

WWE Raw 04 Jan 2021 HDTV Full Show Online DX-TV

WWE Raw 04 Jan 2021

 WWE Raw 04 Jan 2021

 

Download Links with premium High Speed   

 

 

nitroflare.com

http://shrt10.com/UzqX6

 

 

rapidgator.net

http://shrt10.com/7tR9rCkRl

 

 

uploaded.net

http://shrt10.com/8DUnD1cY

 

 

uploadgig.com

http://shrt10.com/R2cUV9tn

 

 

 

Coming away soon all quality 1080i

From Feed Full HDTV + 720p + 540p

just waiting

 

 

 

Watch WWE Raw 04 Jan online

 

Server 1

 

 

 

 

WWE Raw 04 Jan 2021

 

 

 

 

Server-2

 

 

 

 

watch now

 

 

Uploaded By Site DX-TV.com

 

 

Complete name : WWE Raw 04 Jan 2021 HDTV H264 DX-TV.mp4
Format : MPEG-4
Format profile : Base Media
Codec ID : isom
File size : 1.35 GiB
Duration : 2 h 7 min
Overall bit rate : 1 520 kb/s
Writing application : Lavf53.24.2

WWE Raw 04 Jan 

Video
ID : 1
Format : AVC
Format/Info : Advanced Video
Duration : 2 h 7 min
Duration_LastFrame : -32 ms
Bit rate : 1 390 kb/s
Width : 712 pixels
Height : 400 pixels
Display aspect ratio : 16:9
Frame rate mode : Constant
Frame rate : 29.970 (29970/1000) FPS
Color space : YUV
Chroma subsampling : 4:2:0
Bit depth : 8 bits
Scan type : Progressive
Bits/(Pixel*Frame) : 0.163
Stream size : 1.23 GiB (91%)
Writing library : x264 core 118
Codec configuration box : avc

WWE Raw 04 Jan 

Audio
ID : 2
Format : AAC LC
Format/Info : Advanced Audio Codec Low Complexity
Codec ID : mp4a-40-2
Duration : 2 h 7 min
Bit rate mode : Constant
Bit rate : 128 kb/s
Channel(s) : 2 channels
Channel layout : L R
Sampling rate : 48.0 kHz
Frame rate : 46.875 FPS (1024 SPF)
Compression mode : Lossy
Stream size : 116 MiB (8%)
Default : Yes
Alternate group : 1

WWE Raw 04 Jan 

Audio
ID : 2
Format : AAC LC
Format/Info : Advanced Audio Codec Low Complexity
Codec ID : mp4a-40-2
Duration : 2 h 7 min
Bit rate mode : Constant
Bit rate : 128 kb/s
Channel(s) : 2 channels
Channel layout : L R
Sampling rate : 48.0 kHz
Frame rate : 46.875 FPS (1024 SPF)
Compression mode : Lossy
Stream size : 116 MiB (8%)
Default : Yes
Alternate group : 1

 

WWE Raw 04 Jan 2021

Audio
ID : 2
Format : AAC LC
Format/Info : Advanced Audio Codec Low Complexity
Codec ID : mp4a-40-2
Duration : 2 h 7 min
Bit rate mode : Constant
Bit rate : 128 kb/s
Channel(s) : 2 channels
Channel layout : L R
Sampling rate : 48.0 kHz
Frame rate : 46.875 FPS (1024 SPF)
Compression mode : Lossy
Stream size : 116 MiB (8%)
Default : Yes
Alternate group : 1
https://dx-tv.com/

Leave a Reply

Your email address will not be published. Required fields are marked *

This site uses Akismet to reduce spam. Learn how your comment data is processed.