WWE NXT UK Online Replay 2021 04 22 1080p

WWE NXT UK Online Replay 2021 04 22 720p /1080p DX-TV

WWE NXT UK Online

 WWE NXT UK Online

 

 

 

Download Links with High Speed


 

Dopapk

 

 

Show Links

 

http://shrt10.com/BPO4hHo
http://shrt10.com/KMTzn1OW

 

[collapse]

 

 

Nitroflare

 

 

Show Links

 

http://shrt10.com/D2YqYFD1
http://shrt10.com/G8Ou3Hn

 

[collapse]

 

 

Rapidgator

 

 

Show Links

 

http://shrt10.com/4gzEkyeH
http://shrt10.com/vjjcAMwF2

 

[collapse]

 

 

Uploaded

 

 

Show Links

 

http://shrt10.com/WHcU3Xo
http://shrt10.com/X122mY

 

[collapse]

 

 

Watch online

 

Server 1

 

 

 

 

WWE NXT UK Online

 

 

 

 

Server-2

 

 

 

 

watch now

 

 

 

|Server-3

 

 

 

 

watch now

 

 

Uploaded By Site DX-TV.com

 

 

Show Info This Show

 

 

Complete name : WWE.NXT.UK.2021.04.22.720p.Hi.WEB.h264-HEEL.mp4
Format : MPEG-4
Format profile : Base Media
Codec ID : isom
File size : 1.42 GiB
Duration : 57 min 30 s
Overall bit rate mode : Variable
Overall bit rate : 3 540 kb/s

WWE NXT UK Online

Video
ID : 1
Format : AVC
Duration : 57 min 30 s
Bit rate : 3 372 kb/s
Width : 1 280 pixels
Height : 720 pixels
Display aspect ratio : 16:9
Frame rate mode : Constant
Frame rate : 30.000 FPS
Color space : YUV
Chroma subsampling : 4:2:0
Bit depth : 8 bits
Scan type : Progressive
Bits/(Pixel*Frame) : 0.122
Stream size : 1.34 GiB (94%)

Audio
ID : 2
Format : AAC LC
Format/Info : Advanced Audio
Codec ID : mp4a-40-2
Duration : 57 min 30 s
Bit rate mode : Constant
Bit rate : 192 kb/s
Channel(s) : 2 channels
Channel layout : L R
Sampling rate : 48.0 kHz
Frame rate : 46.875 FPS
Compression mode : Lossy
Stream size : 79.1 MiB (5%)
Default : Yes
Alternate group : 1

WWE NXT UK

Text
ID : 3
Format : Timed Text
Muxing mode : sbtl
Codec ID : tx3g
Duration : 57 min 24 s
Bit rate mode : Variable
Bit rate : 92 b/s
Stream size : 38.9 KiB (0%)
Language : English
Default : Yes
Forced : No
Alternate group : 3

Complete name : WWE.NXT.UK.2021.04.22.1080p.WEB.h264-HEEL.mp4
Format : MPEG-4
Format profile : Base Media
Codec ID : isom
File size : 3.19 GiB
Duration : 57 min 30 s
Overall bit rate mode : Variable
Overall bit rate : 7 936 kb/s

Video
ID : 1
Format : AVC
Format/Info : Advanced Video
Duration : 57 min 30 s
Bit rate : 7 808 kb/s
Width : 1 920 pixels
Height : 1 080 pixels
Display aspect ratio : 16:9
Frame rate mode : Constant
Frame rate : 30.000 FPS
Color space : YUV
Chroma subsampling : 4:2:0
Bit depth : 8 bits
Scan type : Progressive
Bits/(Pixel*Frame) : 0.126
Stream size : 3.11 GiB (97%)

WWE NXT UK

Audio
ID : 2
Format : AAC LC
Format/Info : Advanced Audio
Codec ID : mp4a-40-2
Duration : 57 min 30 s
Bit rate mode : Constant
Bit rate : 192 kb/s
Channel(s) : 2 channels
Channel layout : L R
Sampling rate : 48.0 kHz
Frame rate : 46.875 FPS (1024 SPF)
Compression mode : Lossy
Stream size : 79.1 MiB (2%)
Default : Yes
Alternate group : 1

Text
ID : 3
Format : Timed Text
Muxing mode : sbtl
Codec ID : tx3g
Duration : 57 min 24 s
Bit rate mode : Variable
Bit rate : 92 b/s
Stream size : 38.9 KiB (0%)
Language : English
Default : Yes
Forced : No
Alternate group : 3

WWE NXT UK

 

[collapse]

 

 

https://dx-tv.com/