WWE NXT UK November 19 2020 1080p Full Show Online

Watch WWE NXT UK November 19 2020 1080p Full Show Online DX-TV

WWE NXT UK November 19 2020

 

 WWE NXT UK November 19 2020

 

WWE NXT UK November 19 2020 1080p Full Show Online

 

 

[su_expand more_text=”Show More Info” less_text=”Close all Info” height=”30″ text_color=”#000000″ link_color=”#e25f8b” link_style=”button” more_icon=”icon: arrow-down” less_icon=”icon: arrow-up”]

 

Complete name : WWE.NXT.UK.2020.11.19.1080p.WEB.h264-HEEL.mp4
Format : MPEG-4
Format profile : Base Media
Codec ID : isom
File size : 2.58 GiB
Duration : 1 h 3 min
Overall bit rate : 5 817 kb/s
Writing application : Lavf58

WWE NXT UK November 19 2020

Video
ID : 1
Format : AVC
Duration : 1 h 3 min
Bit rate : 5 681 kb/s
Width : 1 920 pixels
Height : 1 080 pixels
Display aspect ratio : 16:9
Frame rate mode : Variable
rate : 30.303 FPS
Color space : YUV
Chroma subsampling : 4:2:0
Bit depth : 8 bits
Scan type : Progressive
Bits/(Pixel*Frame) : 0.091
Stream size : 2.52 GiB
Codec configuration box : avcC

Audio
ID : 2
Format : AAC LC
Format/Info : Advanced Audio
Codec ID : mp4a-40-2
Duration : 1 h 3 min
Bit rate mode : Constant
Bit rate : 125 kb/s
Channel(s) : 2 channels
Channel layout : L R
Sampling rate : 48.0 kHz
Frame rate : 46.875 FPS
Compression mode : Lossy
Stream size : 57.1 MiB
Default : Yes
Alternate group : 1

WWE NXT UK November 19 2020

Text #1
ID : 1-CC1
Format : EIA-608
Muxing mode : SCTE 128 / DTVCC Transport
Muxing mode, more info : Muxed in Video #1
Duration : 1 h 3 min
Bit rate mode : Constant
Stream size : 0.00 Byte (0%)
Caption Service Name : CC1

WWE NXT UK November 19 2020

Text #2
ID : 1-CC3
Format : EIA-608
Muxing mode : SCTE 128 / DTVCC Transport
Muxing mode, more info : Muxed in Video #1
Duration : 1 h 3 min
Bit rate mode : Constant
Stream size : 0.00 Byte (0%)
Caption Service Name : CC3

Text #3
ID : 1-1
Format : EIA-708
Muxing mode : SCTE 128 / DTVCC Transport
Muxing mode, more info : Muxed in Video #1
Duration : 1 h 3 min
Bit rate mode : Constant
Stream size : 0.00 Byte (0%)

WWE NXT UK November 19 2020

Text #4
ID : 1-2
Format : EIA-708
Muxing mode : SCTE 128 / DTVCC Transport
Muxing mode, more info : Muxed in Video #1
Duration : 1 h 3 min
Bit rate mode : Constant
Stream size : 0.00 Byte (0%)

Text #5
ID : 1-3
Format : EIA-708
Muxing mode : SCTE 128 / DTVCC Transport
Muxing mode, more info : Muxed in Video #1
Duration : 1 h 3 min
Bit rate mode : Constant
Stream size : 0.00 Byte (0%)

WWE NXT UK November 19 2020

Text #6
ID : 1-4
Format : EIA-708
Muxing mode : SCTE 128 / DTVCC Transport
Muxing mode, more info : Muxed in Video #1
Duration : 1 h 3 min
Bit rate mode : Constant
Stream size : 0.00 Byte (0%)

Text #7
ID : 1-5
Format : EIA-708
Muxing mode : SCTE 128 / DTVCC Transport
Muxing mode, more info : Muxed in Video #1
Duration : 1 h 3 min
Bit rate mode : Constant
Stream size : 0.00 Byte (0%)

WWE NXT UK 19 2020

Text #8
ID : 1-6
Format : EIA-708
Muxing mode : SCTE 128 / DTVCC Transport
Muxing mode, more info : Muxed in Video #1
Duration : 1 h 3 min
Bit rate mode : Constant
Stream size : 0.00 Byte (0%)

 

 

WWE NXT UK November 19 2020 1080p Full Show Online

 

 

[/su_expand]

 

 

Watch online

 

 

Server 1

 

 

 

 

 

 

 

 

Server-2

 

 

 

 

 

 

 

 

Uploaded By Site DX-TV.com

WWE NXT UK 19 2020

Download Links with premium High Speed   

 

 

 

 

dropapk.to

 

 

 

nitroflare.com

 

 

 

rapidgator.net

 

 

 

uploaded.net

 

 

 

uploadgig.com

 

 

 

 

 

dx-tv.com

 

urlfree.net

You May Also Like

Leave a Reply

Your email address will not be published. Required fields are marked *

This site uses Akismet to reduce spam. Learn how your comment data is processed.