WWE NXT UK Full Show 2020 10 01 720p

Watch WWE NXT UK Full Show 2020 10 01 720p DX-TV

 

WWE NXT UK

 

 WWE NXT UK

 

WWE NXT UK Full Show 2020 10 01 720p

 

 

 

 

Complete name : WWE.NXT.UK.2020.10.01.720p.WEB.h264-HEEL.mp4
Format : MPEG-4
Format profile : Base Media
Codec ID : isom
File size : 1.56 GiB
Duration : 52 min 48 s
Overall bit rate mode : Variable
Overall bit rate : 4 228 kb/s
Writing application : Lavf58.32.104

WWE NXT UK

Video
ID : 1
Format : AVC
Duration : 52 min 48 s
Bit rate : 4 092 kb/s
Width : 1 280 pixels
Height : 720 pixels
Display aspect ratio : 16:9
Frame rate mode : Variable
Frame rate : 30.000 FPS
Minimum frame rate : 29.412 FPS
Maximum frame rate : 30.303 FPS
Color space : YUV
Chroma subsampling : 4:2:0
Bit depth : 8 bits
Scan type : Progressive
Bits/(Pixel*Frame) : 0.148
Stream size : 1.51 GiB (97%)
Codec configuration box : avcC

WWE NXT UK

Audio
ID : 2
Format : AAC LC
Format/Info : Advanced Audio
Codec ID : mp4a-40-2
Duration : 52 min 48 s
Bit rate mode : Variable
Bit rate : 125 kb/s
Maximum bit rate : 132 kb/s
Channel(s) : 2 channels
Channel layout : L R
Sampling rate : 48.0 kHz
Frame rate : 46.875 FPS (1024 SPF)
Compression mode : Lossy
Stream size : 47.4 MiB (3%)
Default : Yes
Alternate group : 1

WWE NXT UK

Text #1
ID : 1-CC1
Format : EIA-608
Muxing mode : SCTE 128 / DTVCC Transport
Muxing mode, more info : Muxed in Video #1
Duration : 52 min 48 s
Bit rate mode : Constant
Stream size : 0.00 Byte (0%)
CaptionServiceName : CC1

Text #2
ID : 1-CC3
Format : EIA-608
Muxing mode : SCTE 128 / DTVCC Transport
Muxing mode, more info : Muxed in Video #1
Duration : 52 min 48 s
Bit rate mode : Constant
Stream size : 0.00 Byte (0%)
CaptionServiceName : CC3

WWE NXT UK

Text #3
ID : 1-1
Format : EIA-708
Muxing mode : SCTE 128 / DTVCC Transport
Muxing mode, more info : Muxed in Video #1
Duration : 52 min 48 s
Bit rate mode : Constant
Stream size : 0.00 Byte (0%)

WWE NXT UK

Text #4
ID : 1-2
Format : EIA-708
Muxing mode : SCTE 128 / DTVCC Transport
Muxing mode, more info : Muxed in Video #1
Duration : 52 min 48 s
Bit rate mode : Constant
Stream size : 0.00 Byte (0%)

 

 

 

WWE NXT UK Full Show 2020 10 01 720p

 

 

 

 

Watch online

 

 

 

 

 

Server 1

 

 

 

 

watch now

 

 

 

 

Server-2

 

 

 

WWE NXT UK

 

 

 

 

Server-3

 

 

 

watch now

 

 

 

 

Uploaded By Site DX-TV.com

 

 

 

 

Download Free Links with normal and high Speed [ more 15 hosts ]  

 

 

 

 

http://shrt10.com/9aXARUM0
http://shrt10.com/uBohUX
http://shrt10.com/NXmcDn
http://shrt10.com/ccQbuPRx
http://shrt10.com/9V6q3T
http://shrt10.com/d0uQh
http://shrt10.com/m2TkvZbj3
http://shrt10.com/m3gUL
http://shrt10.com/GD77Ar3
http://shrt10.com/QV0U5
http://shrt10.com/Gk2wB
http://shrt10.com/qF6oaOpl
http://shrt10.com/9yakBY0oB
http://shrt10.com/CiFP76QM

 

 

 

Download Links with premium High Speed   

 

 

 

 

 

 

nitroflare.com

 

 

 

rapidgator.net

 

 

 

uploaded.net

 

 

 

uploadgig.com

 

 

 

 

 

dx-tv.com

 

urlfree.net

Leave a Reply

Your email address will not be published. Required fields are marked *

This site uses Akismet to reduce spam. Learn how your comment data is processed.