WWE NXT UK 2021 10 21 1080p Replay

WWE NXT UK 2021 10 21 1080p Replay

 

WWE NXT UK

 

 WWE NXT UK

 

Watch WWE NXT UK 2021 10 21 1080p Replay

 

 

Download Links with High Speed
 

 


 

Dopapk

 

 

Show Links

 

 

http://shrt10.com/ch0VbYeX

http://shrt10.com/iNE1PAM

 

 

 

 

 

Nitroflare

 

 

Show Links

 

 

http://shrt10.com/ijQMhI19

http://shrt10.com/SNs4VqJRY

 

 

 

 

Rapidgator

 

 

Show Links

 

 

http://shrt10.com/AIyVu4H

http://shrt10.com/AHVaU8TAV

 

 

 

 

 

Uploaded
 

 

 

Show Links

 

 

http://shrt10.com/KUUfP

http://shrt10.com/Q2NmORTTV

 

 

 

 

 

 

 

Watch online

 

Server 1

 

 

 

 

WWE NXT UK

 

 

 

 

Server-2

 

 

 

 

watch now

 

 

 

|Server-3

 

 

 

 

watch now

 

 

Uploaded By Site DX-TV.com

 

 

Open Info Show

 

 

Complete name : WWE.NXT.UK.2021.10.21.720p.Hi.WEB.h264-HEEL.mp4
Format : MPEG-4
Format profile : Base Media
File size : 1.26 GiB
Duration : 50 min 51 s
Overall bit rate mode : Variable
Overall bit rate : 3 541 kb/s

WWE NXT UK

Video
ID : 1
Format : AVC
Duration : 50 min 51 s
Bit rate : 3 372 kb/s
Width : 1 280 pixels
Height : 720 pixels
Display aspect ratio : 16:9
Frame rate mode : Constant
Frame rate : 30.000 FPS
Color space : YUV
Chroma subsampling : 4:2:0
Bit depth : 8 bits
Scan type : Progressive
Bits/(Pixel*Frame) : 0.122
Stream size : 1.19 GiB (94%)

Audio
ID : 2
Format : AAC LC
Codec ID : mp4a-40-2
Duration : 50 min 50 s
Bit rate mode : Constant
Bit rate : 192 kb/s
Channel(s) : 2 channels
Channel layout : L R
Sampling rate : 48.0 kHz
Frame rate : 46.875 FPS (1024 SPF)
Compression mode : Lossy
Stream size : 69.9 MiB (5%)
Default : Yes
Alternate group : 1

WWE NXT UK

Text
ID : 3
Format : Timed Text
Muxing mode : sbtl
Codec ID : tx3g
Duration : 50 min 47 s
Bit rate mode : Variable
Bit rate : 101 b/s
Stream size : 37.7 KiB (0%)
Language : English
Default : Yes
Forced : No
Alternate group : 3

Complete name : WWE.NXT.UK.2021.10.21.1080p.WEB.h264-HEEL.mp4
Format : MPEG-4
File size : 2.82 GiB
Duration : 50 min 51 s
Overall bit rate mode : Variable
Overall bit rate : 7 950 kb/s

Video
ID : 1
Format : AVC
Duration : 50 min 51 s
Bit rate : 7 808 kb/s
Width : 1 920 pixels
Height : 1 080 pixels
Display aspect ratio : 16:9
Frame rate mode : Constant
Frame rate : 30.000 FPS
Color space : YUV
Chroma subsampling : 4:2:0
Bit depth : 8 bits
Scan type : Progressive
Bits/(Pixel*Frame) : 0.126
Stream size : 2.75 GiB (97%)

WWE NXT UK

Audio
ID : 2
Format : AAC LC
Codec ID : mp4a-40-2
Duration : 50 min 50 s
Bit rate mode : Constant
Bit rate : 192 kb/s
Channel(s) : 2 channels
Channel layout : L R
Sampling rate : 48.0 kHz
Frame rate : 46.875 FPS (1024 SPF)
Compression mode : Lossy
Stream size : 69.9 MiB (2%)
Default : Yes
Alternate group : 1

Text
ID : 3
Format : Timed Text
Muxing mode : sbtl
Codec ID : tx3g
Duration : 50 min 47 s
Bit rate mode : Variable
Bit rate : 101 b/s
Stream size : 37.7 KiB (0%)
Language : English
Default : Yes
Forced : No
Alternate group : 3

 

 

https://dx-tv.com/

 

 

 

 

 

Leave a Reply

Your email address will not be published. Required fields are marked *

This site uses Akismet to reduce spam. Learn how your comment data is processed.