WWE NXT UK 2021 10 07 720p Full Show Replay

WWE NXT UK 2021 10 07 720p Full Show Replay DX-TV

WWE NXT UK

 WWE NXT UK

 

 

 

Download Links with premium High Speed
 

 


 

Dopapk

 

 

Show Links

 

 

http://shrt10.com/ECXmsL
http://shrt10.com/tlfehD

 

 

 

 

 

Nitroflare

 

 

Show Links

 

 

http://shrt10.com/g46shb70
http://shrt10.com/TMkRE

 

 

 

 

Rapidgator

 

 

Show Links

 

 

http://shrt10.com/8xCjg
http://shrt10.com/aTeYEsUWx

 

 

 

 

 

Uploaded
 

 

 

Show Links

 

 

http://shrt10.com/BIA5Sc
http://shrt10.com/Nn8uUpA

 

 

 

 

 

 

 

Watch WWE NXT UK online

 

Server 1

 

 

 

 

WWE NXT UK

 

 

 

 

Server-2

 

 

 

 

watch now

 

 

 

|Server-3

 

 

 

 

watch now

 

 

Uploaded By Site DX-TV.com

 

 

Open Info Show

 

 

Complete name : WWE.NXT.UK.2021.10.07.1080p.WEB.h264-HEEL.mp4
Format : MPEG-4
Format profile : Base Media
File size : 2.97 GiB
Duration : 53 min 45 s
Overall bit rate mode : Variable
Overall bit rate : 7 904 kb/s

WWE NXT  

Video
ID : 1
Format : AVC
Duration : 53 min 45 s
Bit rate : 7 808 kb/s
Width : 1 920 pixels
Height : 1 080 pixels
Display aspect ratio : 16:9
Frame rate mode : Constant
Frame rate : 30.000 FPS
Color space : YUV
Chroma subsampling : 4:2:0
Bit depth : 8 bits
Scan type : Progressive
Bits/(Pixel*Frame) : 0.126
Stream size : 2.89 GiB (97%)

WWE NXT UK

Audio
ID : 2
Format : AAC LC
Format/Info : Advanced
Codec ID : mp4a-40-2
Duration : 53 min 45 s
Bit rate mode : Constant
Bit rate : 192 kb/s
Channel(s) : 2 channels
Channel layout : L R
Sampling rate : 48.0 kHz
Frame rate : 46.875 FPS (1024 SPF)
Compression mode : Lossy
Stream size : 74.0 MiB (2%)
Default : Yes
Alternate group : 1

WWE NXT UK

Text
ID : 3
Format : Timed Text
Muxing mode : sbtl
Codec ID : tx3g
Duration : 53 min 33 s
Bit rate mode : Variable
Bit rate : 102 b/s
Stream size : 40.0 KiB (0%)
Language : English
Default : Yes
Forced : No
Alternate group : 3

Complete name : WWE.NXT.UK.2021.10.07.720p.Hi.WEB.h264-HEEL.mp4
Format : MPEG-4
Format profile : Base Media
Codec ID : isom
File size : 1.33 GiB
Duration : 53 min 45 s
Overall bit rate mode : Variable
Overall bit rate : 3 536 kb/s

WWE NXT UK

Video
ID : 1
Format : AVC
Duration : 53 min 45 s
Bit rate : 3 372 kb/s
Width : 1 280 pixels
Height : 720 pixels
Display aspect ratio : 16:9
Frame rate mode : Constant
Frame rate : 30.000 FPS
Color space : YUV
Chroma subsampling : 4:2:0
Bit depth : 8 bits
Scan type : Progressive
Bits/(Pixel*Frame) : 0.122

Audio
ID : 2
Format : AAC LC
Format/Info : Advanced
Codec ID : mp4a-40-2
Duration : 53 min 45 s
Bit rate mode : Constant
Bit rate : 192 kb/s
Channel(s) : 2 channels
Channel layout : L R
Sampling rate : 48.0 kHz
Frame rate : 46.875 FPS (1024 SPF)
Compression mode : Lossy
Stream size : 74.0 MiB (5%)
Default : Yes
Alternate group : 1

WWE NXT UK

Text
ID : 3
Format : Timed Text
Muxing mode : sbtl
Codec ID : tx3g
Duration : 53 min 33 s
Bit rate mode : Variable
Bit rate : 102 b/s
Stream size : 40.0 KiB (0%)
Language : English
Default : Yes
Forced : No
Alternate group : 3

 

 

https://dx-tv.com/

 

 

 

 

 

You May Also Like

Leave a Reply

Your email address will not be published. Required fields are marked *

This site uses Akismet to reduce spam. Learn how your comment data is processed.